Browse Collections Artists Sources   Search Dates

Add Show    List Management    Help


Garcia 08/21/81
Keystone, Berkeley, CA
Comments Add Comment    Source Collectors    Add to Collection    Add to Want List    History
Source # 139056 Other Sources
Entered by Joe Jupille
Checksums jgb1981-08-21.md5 , jgb1981-08-21.ffp
Disc Counts 0 / 0
Media Size Compressed: 866.83 MB (908939264 bytes)
Uncompressed: 1.37 GB (1467719088 bytes)
Date Circulated
Date Added
08/12/2017
08/12/2017
Source Summary JGB; flac 1644; Source: SBD > C (x1 or 2) > Lo-gen Cassette, kindly provided by Craig L. Transfer: Maxell XLII's > Nakamichi CR-5A > Edirol FA-66 > Wavelab 2448 > R8Brain > CD-Wave > TLH > FLAC 1644 tagged. Transfer by Andrew F. 08/2017 
Source Information - Download Text | Download Zip
JERRY GARCIA BAND
Keystone
Berkeley CA
08-21-1981

s1t01 I'll Take a Melody
s1t02 They Love Each Other
s1t03 After Midnight
s1t04 Russian Lullaby
s1t05 I Second That Emotion
s1t06 Tangled Up in Blue

s2t01 Mission in the Rain
s2t02 The Harder They Come
s2t03 /Let it Rock (cuts in)
s2t04 The Night They Drove Old Dixie Down
s2t05 Dear Prudence
s2t06 Midnight Moonlight

Source: SBD > C (x1 or 2) > Lo-gen Cassette, kindly provided by Craig L.

Transfer: Maxell XLII's > Nakamichi CR-5A > Edirol FA-66 > Wavelab 2448 >
R8Brain > CD-Wave > TLH > FLAC 1644 tagged. Transfer by Andrew F. 08/2017

Note: Same root-source as found in 16694 & 110342; this version sounding
better (*ymmv) and patched to make it complete. ID-76344 (AUD) covers; all
of ITAM, first 4:35 of TLEO, tape flip in TUIB 0:07 > 0:15, and first 0:07
of MITR. ID-16694 (SBD) covers tape damage in Dear Prudence 5:18 > 5:36.

    length     expanded size    cdr  WAVE problems  fmt   ratio  filename
    13:59.52      148121948 B   ---   --   ---xx   flac  0.5436  jgb1981-08-21s1t01.flac
    10:29.12      110983868 B   ---   --   ---xx   flac  0.5785  jgb1981-08-21s1t02.flac
    14:49.55      156949004 B   ---   --   ---xx   flac  0.6423  jgb1981-08-21s1t03.flac
    14:48.49      156758492 B   ---   --   ---xx   flac  0.6086  jgb1981-08-21s1t04.flac
    10:25.50      110367644 B   ---   --   ---xx   flac  0.6461  jgb1981-08-21s1t05.flac
    11:32.56      122200556 B   ---   --   ---xx   flac  0.6454  jgb1981-08-21s1t06.flac
    12:23.57      131199308 B   ---   --   ---xx   flac  0.6337  jgb1981-08-21s2t01.flac
    11:44.17      124225628 B   ---   --   ---xx   flac  0.6328  jgb1981-08-21s2t02.flac
     7:42.14       81529772 B   ---   --   ---xx   flac  0.6307  jgb1981-08-21s2t03.flac
     8:45.73       92781740 B   ---   --   ---xx   flac  0.6275  jgb1981-08-21s2t04.flac
    11:43.38      124098620 B   ---   --   ---xx   flac  0.6278  jgb1981-08-21s2t05.flac
    10:15.07      108502508 B   ---   --   ---xx   flac  0.6312  jgb1981-08-21s2t06.flac
   138:40.30     1467719088 B                            0.6193  (12 files)

No errors occured.


Show Checksums
jgb1981-08-21.md5
84f321562e4a30878981690f8eefa5df *jgb1981-08-21s1t01.flac
a99468ce6b37f3b54b4a1a5d6570ad73 *jgb1981-08-21s1t02.flac
ce2006b6e0c785114a77666b03f2a89f *jgb1981-08-21s1t03.flac
63ce527b699a5720921d484d028b1707 *jgb1981-08-21s1t04.flac
93024c9cfdb4b6bb244564e054636817 *jgb1981-08-21s1t05.flac
a5eaab2bddb4e1cf10872a4f08137947 *jgb1981-08-21s1t06.flac
fb30b42f3620e24a532a89174ef5ac3b *jgb1981-08-21s2t01.flac
8191c50067081ca2d380718eb9d091a3 *jgb1981-08-21s2t02.flac
86f62867e94297b802fdabfb742ce52e *jgb1981-08-21s2t03.flac
052b99baed07ead189006901609f8ffc *jgb1981-08-21s2t04.flac
378a1000809068fa6a03c0bd8f7429fe *jgb1981-08-21s2t05.flac
839d7d05381b8261fd076b4a48b815ee *jgb1981-08-21s2t06.flac
jgb1981-08-21.ffp
jgb1981-08-21s1t01.flac:fd43c4585637a7821a0180befdf5861c
jgb1981-08-21s1t02.flac:fb4edae33650bc2f3fa569c3f84d5275
jgb1981-08-21s1t03.flac:9ac3f03d74be67c88efce9e2ff4211f0
jgb1981-08-21s1t04.flac:c3bb24abe4f71087016156ee00e6acd8
jgb1981-08-21s1t05.flac:a821cf1f5bd9d9e5d64717741010d4d3
jgb1981-08-21s1t06.flac:9096ee830db9a22b2eadc41692a50f47
jgb1981-08-21s2t01.flac:9c1992e6143e1ec3bca4828067fa5de1
jgb1981-08-21s2t02.flac:b4d49c08cf46477f87b2d87e30f63a08
jgb1981-08-21s2t03.flac:8be2ee85c1d781bc213f15be448eddfc
jgb1981-08-21s2t04.flac:9877b44eb5c1ba7409851d717e7e640b
jgb1981-08-21s2t05.flac:daf573ac155a88b43bb2c59a18e90ffb
jgb1981-08-21s2t06.flac:eb2931cd05cc89353e561aded26492be

Comments
Add Comment
Other Sources (comments)
Jerr Garcia Band: MSC > 2C... (0) JGB, I/IIp: Jim Vita's MAC... (0)
Date User Comment