Browse Collections Artists Sources   Search Dates

Add Show    List Management    Help


Phish 07/28/17
Madison Square Garden, New York, NY
Comments Add Comment    Source Collectors    Add to Collection    Add to Want List    History
Source # 139060 Other Sources
Entered by Matt Vernon
Checksums ffp
Disc Counts 0 / 0
Media Size
Date Circulated
Date Added
08/13/2017
08/13/2017
Source Summary flac16 44.1khz Schoeps mk41v>kc5>cmc6>Sonosax SX-R4 (24bit/96khz); mics were left of center DIN front row of taper section. Transfer: WAV>USB>MacBook Pro>Audacity(tracking,fades)>Sony Soundforge Convrt(resample(izotope,higher than highest settings)/dither(mbit+/ultra, high dither)to 16 bit/44.1k)>XAct(FLAC 8,ffp,fix sbe,tagging). Recorded and transferred by Andy Murray 
Source Information - Download Text | Download Zip
Phish
2017-07-28
Madison Square Garden
New York, NY

Bakers Dozen Night 6

mics were left of center DIN front row of taper section

Schoeps mk41v>kc5>cmc6>Sonosax SX-R4 (24bit/96khz)

WAV>USB>MacBook Pro>Audacity(tracking,fades)>Sony Soundforge Convrt(resample(izotope,higher than highest settings)/dither(mbit+/ultra, high dither)to 16 bit/44.1k)>XAct(FLAC 8,ffp,fix sbe,tagging)

Recorded and transferred by Andy Murray

Set 1

01 crowd set 1
02 Chocolate Rain
03 Ass Handed
04 Free
05 Weigh >
06 Undermind >
07 The Oh Kee Pah Ceremony
08 The Dogs >
09 Destiny Unbound
10 Divided Sky
11 Things People Do
12 Sand

Set 2

01 crowd set 2
02 Have Mercy
03 Chalkdust Torture
04 You Sexy Thing >
05 Mercury >
06 You Sexy Thing >
07 Backwards Down The Number Line >
08 Rock and Roll
09 encore break
10 Fee
11 Space Oddity

;flac fingerprints generated by xACT 2.39 on 2017-08-10 05:21:13 +0000

ph2017-07-28.mk41v.sxr4.1644.s1t01.flac:37daa52e72e9ecfe268d34f74e15df83
ph2017-07-28.mk41v.sxr4.1644.s1t02.flac:98117f0101162b52b97b09501280f2e7
ph2017-07-28.mk41v.sxr4.1644.s1t03.flac:ae195f84a4720e0daf287e93ff3dfd99
ph2017-07-28.mk41v.sxr4.1644.s1t04.flac:40b95a96c0a4a49f2d543beef762c1b1
ph2017-07-28.mk41v.sxr4.1644.s1t05.flac:ad75e2e46c2fb02d50d6ae1f966b5598
ph2017-07-28.mk41v.sxr4.1644.s1t06.flac:34ba4f11bcd2ce0ea42331e3c1e420d6
ph2017-07-28.mk41v.sxr4.1644.s1t07.flac:f42ee856f5098c745f172331dba4f765
ph2017-07-28.mk41v.sxr4.1644.s1t08.flac:f01c4934fb201d7cd78c381ec642b6b0
ph2017-07-28.mk41v.sxr4.1644.s1t09.flac:3112177675eeeaae3e37617b537909bf
ph2017-07-28.mk41v.sxr4.1644.s1t10.flac:bcb75b5610682c46930661f2b6d6dbe9
ph2017-07-28.mk41v.sxr4.1644.s1t11.flac:05654e614bd2f523d8b764de4408ac38
ph2017-07-28.mk41v.sxr4.1644.s1t12.flac:9195d5e688bcc28a5db087ec7c22b4b1
ph2017-07-28.mk41v.sxr4.1644.s2t01.flac:8f5d3223d5d55496c11640b397011969
ph2017-07-28.mk41v.sxr4.1644.s2t02.flac:8f6023ecba6896da23277075500a5c14
ph2017-07-28.mk41v.sxr4.1644.s2t03.flac:183890f9b68b9502dc0fa9d9e795126e
ph2017-07-28.mk41v.sxr4.1644.s2t04.flac:b7809074b7ca471c9266b6c4868acdda
ph2017-07-28.mk41v.sxr4.1644.s2t05.flac:f92e08ca923be94e14d95940efb6509f
ph2017-07-28.mk41v.sxr4.1644.s2t06.flac:1e6b9ffa418099b17f239e35f1a18ea8
ph2017-07-28.mk41v.sxr4.1644.s2t07.flac:6f9eaba2e44e397e416c794e53f86462
ph2017-07-28.mk41v.sxr4.1644.s2t08.flac:93a6599ab93b04fb2e391548e6c5005e
ph2017-07-28.mk41v.sxr4.1644.s2t09.flac:1c461b41bd43a3ba3a3d7be615dde819
ph2017-07-28.mk41v.sxr4.1644.s2t10.flac:80773e31c76a4f36452d19cd5e05c48a
ph2017-07-28.mk41v.sxr4.1644.s2t11.flac:59b0454f4560a3b0d4e2e38b7ed0187b

length expanded size cdr WAVE problems fmt ratio filename
1:09.10 12195164 B --- -- ----- wav 1.0000 ph2017-07-28.mk41v.sxr4.1644.s1t01.wav
2:52.03 30347900 B --- -- ----- wav 1.0000 ph2017-07-28.mk41v.sxr4.1644.s1t02.wav
1:09.01 12173996 B --- -- ----- wav 1.0000 ph2017-07-28.mk41v.sxr4.1644.s1t03.wav
11:09.44 118115132 B --- -- ----- wav 1.0000 ph2017-07-28.mk41v.sxr4.1644.s1t04.wav
5:24.01 57155996 B --- -- ----- wav 1.0000 ph2017-07-28.mk41v.sxr4.1644.s1t05.wav
8:52.72 94014188 B --- -- ----- wav 1.0000 ph2017-07-28.mk41v.sxr4.1644.s1t06.wav
1:58.15 20850524 B --- -- ----- wav 1.0000 ph2017-07-28.mk41v.sxr4.1644.s1t07.wav
5:46.66 61189676 B --- -- ----- wav 1.0000 ph2017-07-28.mk41v.sxr4.1644.s1t08.wav
7:49.28 82797500 B --- -- ----- wav 1.0000 ph2017-07-28.mk41v.sxr4.1644.s1t09.wav
16:59.14 179784572 B --- -- ----- wav 1.0000 ph2017-07-28.mk41v.sxr4.1644.s1t10.wav
3:59.60 42300764 B --- -- ----- wav 1.0000 ph2017-07-28.mk41v.sxr4.1644.s1t11.wav
12:38.02 133715948 B --- -- ----- wav 1.0000 ph2017-07-28.mk41v.sxr4.1644.s1t12.wav
1:43.53 18293900 B --- -- ----- wav 1.0000 ph2017-07-28.mk41v.sxr4.1644.s2t01.wav
5:54.27 62509148 B --- -- ----- wav 1.0000 ph2017-07-28.mk41v.sxr4.1644.s2t02.wav
24:21.40 257814524 B --- -- ----- wav 1.0000 ph2017-07-28.mk41v.sxr4.1644.s2t03.wav
11:01.47 116710988 B --- -- ----- wav 1.0000 ph2017-07-28.mk41v.sxr4.1644.s2t04.wav
12:20.14 130568972 B --- -- ----- wav 1.0000 ph2017-07-28.mk41v.sxr4.1644.s2t05.wav
3:58.01 41985596 B --- -- ----- wav 1.0000 ph2017-07-28.mk41v.sxr4.1644.s2t06.wav
9:33.12 101105468 B --- -- ----- wav 1.0000 ph2017-07-28.mk41v.sxr4.1644.s2t07.wav
6:44.22 71317388 B --- -- ----- wav 1.0000 ph2017-07-28.mk41v.sxr4.1644.s2t08.wav
4:23.49 46508492 B --- -- ----- wav 1.0000 ph2017-07-28.mk41v.sxr4.1644.s2t09.wav
6:54.24 73086092 B --- -- ----- wav 1.0000 ph2017-07-28.mk41v.sxr4.1644.s2t10.wav
5:37.16 59484476 B --- -- ----- wav 1.0000 ph2017-07-28.mk41v.sxr4.1644.s2t11.wav
172:20.21 1824026404 B 1.0000 (23 files)
Show Checksums
ffp
ph2017-07-28.mk41v.sxr4.1644.s1t01.flac:37daa52e72e9ecfe268d34f74e15df83
ph2017-07-28.mk41v.sxr4.1644.s1t02.flac:98117f0101162b52b97b09501280f2e7
ph2017-07-28.mk41v.sxr4.1644.s1t03.flac:ae195f84a4720e0daf287e93ff3dfd99
ph2017-07-28.mk41v.sxr4.1644.s1t04.flac:40b95a96c0a4a49f2d543beef762c1b1
ph2017-07-28.mk41v.sxr4.1644.s1t05.flac:ad75e2e46c2fb02d50d6ae1f966b5598
ph2017-07-28.mk41v.sxr4.1644.s1t06.flac:34ba4f11bcd2ce0ea42331e3c1e420d6
ph2017-07-28.mk41v.sxr4.1644.s1t07.flac:f42ee856f5098c745f172331dba4f765
ph2017-07-28.mk41v.sxr4.1644.s1t08.flac:f01c4934fb201d7cd78c381ec642b6b0
ph2017-07-28.mk41v.sxr4.1644.s1t09.flac:3112177675eeeaae3e37617b537909bf
ph2017-07-28.mk41v.sxr4.1644.s1t10.flac:bcb75b5610682c46930661f2b6d6dbe9
ph2017-07-28.mk41v.sxr4.1644.s1t11.flac:05654e614bd2f523d8b764de4408ac38
ph2017-07-28.mk41v.sxr4.1644.s1t12.flac:9195d5e688bcc28a5db087ec7c22b4b1
ph2017-07-28.mk41v.sxr4.1644.s2t01.flac:8f5d3223d5d55496c11640b397011969
ph2017-07-28.mk41v.sxr4.1644.s2t02.flac:8f6023ecba6896da23277075500a5c14
ph2017-07-28.mk41v.sxr4.1644.s2t03.flac:183890f9b68b9502dc0fa9d9e795126e
ph2017-07-28.mk41v.sxr4.1644.s2t04.flac:b7809074b7ca471c9266b6c4868acdda
ph2017-07-28.mk41v.sxr4.1644.s2t05.flac:f92e08ca923be94e14d95940efb6509f
ph2017-07-28.mk41v.sxr4.1644.s2t06.flac:1e6b9ffa418099b17f239e35f1a18ea8
ph2017-07-28.mk41v.sxr4.1644.s2t07.flac:6f9eaba2e44e397e416c794e53f86462
ph2017-07-28.mk41v.sxr4.1644.s2t08.flac:93a6599ab93b04fb2e391548e6c5005e
ph2017-07-28.mk41v.sxr4.1644.s2t09.flac:1c461b41bd43a3ba3a3d7be615dde819
ph2017-07-28.mk41v.sxr4.1644.s2t10.flac:80773e31c76a4f36452d19cd5e05c48a
ph2017-07-28.mk41v.sxr4.1644.s2t11.flac:59b0454f4560a3b0d4e2e38b7ed0187b

Comments
Add Comment
Other Sources (comments)
flac16 44.1khz ... (0) flac24 48khz ... (0) flac16 44.1khz ... (0) flac24 48khz ... (0) flac16 44.1khz AKG... (1) flac24 48khz AKG... (1) flac16 48khz ... (0) flac24 96khz Field:... (0) flac24 48khz... (1) flac24 48khz ... (1) flac24 96khz ... (0) flac16 44.1khz ... (0) flac24 96khz ... (0) flac24 96khz ... (0) flac16 44.1khz ... (0) flac16 44.1khz... (0)
Date User Comment