Browse Collections Artists Sources   Search Dates

Add Show    List Management    Help


Phish 07/29/17
Madison Square Garden, New York, NY
Comments Add Comment    Source Collectors    Add to Collection    Add to Want List    History
Source # 139061 Other Sources
Entered by Matt Vernon
Checksums ffp
Disc Counts 0 / 0
Media Size
Date Circulated
Date Added
08/13/2017
08/13/2017
Source Summary flac16 44.1khz Schoeps mk41v>kc5>cmc6>Sonosax SX-R4 (24bit/96khz). Location: mics were right of center DIN front row of taper section. Transfer: WAV>USB>MacBook Pro>Audacity(tracking,fades)>Sony Soundforge Convrt(resample(izotope,higher than highest settings)/dither(mbit+/ultra, high dither)to 16 bit/44.1k)>XAct(FLAC 8,ffp,fix sbe,tagging). Recorded and transferred by Andy Murray 
Source Information - Download Text | Download Zip
Phish
2017-07-29
Madison Square Garden
New York, NY

Bakers Dozen Night 7

mics were right of center DIN front row of taper section

Schoeps mk41v>kc5>cmc6>Sonosax SX-R4 (24bit/96khz)

WAV>USB>MacBook Pro>Audacity(tracking,fades)>Sony Soundforge Convrt(resample(izotope,higher than highest settings)/dither(mbit+/ultra, high dither)to 16 bit/44.1k)>XAct(FLAC 8,ffp,fix sbe,tagging)

Recorded and transferred by Andy Murray

Set 1

01 crowd set 1
02 Llama
03 Wilson >
04 Stealing Time From the Faulty Plan >
05 Ya Mar
06 Tela
07 The Birds >
08 The Line
09 Water in the Sky
10 Vultures >
11 Train Song >
12 Horn
13 I Am The Walrus

Set 2

01 crowd set 2
02 Blaze On >
03 Twenty Years Later >
04 Alumni Blues >
05 Letter to Jimmy Page >
06 Alumni Blues >
07 Meatstick >
08 Dirt >
09 Harry Hood
10 encore break
11 Cinnamon Girl

;flac fingerprints generated by xACT 2.39 on 2017-08-10 19:24:34 +0000

ph2017-07-29.mk41v.sxr4.1644.s1t01.flac:33afb93c4a71c99765f22a9b8f5b0989
ph2017-07-29.mk41v.sxr4.1644.s1t02.flac:f8e1822dd3ad5dc3c7e2c318c00a84d9
ph2017-07-29.mk41v.sxr4.1644.s1t03.flac:c406de955a25d33f53e9398f79c543e5
ph2017-07-29.mk41v.sxr4.1644.s1t04.flac:5a1e9b196591ce446c4b498fe34d04cf
ph2017-07-29.mk41v.sxr4.1644.s1t05.flac:696a49018391483909187764e890c2d0
ph2017-07-29.mk41v.sxr4.1644.s1t06.flac:c2db52defbec2ddaa22bc2d0a99c7703
ph2017-07-29.mk41v.sxr4.1644.s1t07.flac:607c7b6ac729c81428e068aec0122283
ph2017-07-29.mk41v.sxr4.1644.s1t08.flac:fc53c364b5929cbd8119c00e8fd3cd6f
ph2017-07-29.mk41v.sxr4.1644.s1t09.flac:9886095b756d30f05f7aade1e0fadaff
ph2017-07-29.mk41v.sxr4.1644.s1t10.flac:1b9ca56af7b8f9fc799bdba758608bd9
ph2017-07-29.mk41v.sxr4.1644.s1t11.flac:2cf52c76fd71f012b743230203af9797
ph2017-07-29.mk41v.sxr4.1644.s1t12.flac:56db2f7c11d3d7b50eb3d5d46926b0ca
ph2017-07-29.mk41v.sxr4.1644.s1t13.flac:86caaa6433f63ee0232349213e2f97fb
ph2017-07-29.mk41v.sxr4.1644.s2t01.flac:602b5a7b21139143e1c43ae15b921391
ph2017-07-29.mk41v.sxr4.1644.s2t02.flac:85bafee0353324eae30edbdfadb55192
ph2017-07-29.mk41v.sxr4.1644.s2t03.flac:df9a5cf9a38028358b728baa65d86962
ph2017-07-29.mk41v.sxr4.1644.s2t04.flac:acf3af443c07d0477c872ab222e71ed5
ph2017-07-29.mk41v.sxr4.1644.s2t05.flac:d92c802c4a970228bc8dd9f20997effc
ph2017-07-29.mk41v.sxr4.1644.s2t06.flac:1fe102a2b73228245423fd6edf79cef8
ph2017-07-29.mk41v.sxr4.1644.s2t07.flac:429ad8ea27bc1cc6db83096ceed3f164
ph2017-07-29.mk41v.sxr4.1644.s2t08.flac:387cc41a818f61fbe30dcce3845d60c8
ph2017-07-29.mk41v.sxr4.1644.s2t09.flac:0fa0c8e4121acec0aa13f9ac22fdbc42
ph2017-07-29.mk41v.sxr4.1644.s2t10.flac:6209e26d8c91a32e3d776f3ffb18f5a4
ph2017-07-29.mk41v.sxr4.1644.s2t11.flac:8320ed87ce0c1b8dadfafcfde6ae8579

length expanded size cdr WAVE problems fmt ratio filename
1:20.33 14189660 B --- -- ----- wav 1.0000 ph2017-07-29.mk41v.sxr4.1644.s1t01.wav
4:34.60 48474764 B --- -- ----- wav 1.0000 ph2017-07-29.mk41v.sxr4.1644.s1t02.wav
9:11.01 97198796 B --- -- ----- wav 1.0000 ph2017-07-29.mk41v.sxr4.1644.s1t03.wav
8:24.68 89065580 B --- -- ----- wav 1.0000 ph2017-07-29.mk41v.sxr4.1644.s1t04.wav
9:48.53 103847900 B --- -- ----- wav 1.0000 ph2017-07-29.mk41v.sxr4.1644.s1t05.wav
7:20.24 77672492 B --- -- ----- wav 1.0000 ph2017-07-29.mk41v.sxr4.1644.s1t06.wav
4:21.40 46134524 B --- -- ----- wav 1.0000 ph2017-07-29.mk41v.sxr4.1644.s1t07.wav
7:11.48 76141340 B --- -- ----- wav 1.0000 ph2017-07-29.mk41v.sxr4.1644.s1t08.wav
4:44.62 50243468 B --- -- ----- wav 1.0000 ph2017-07-29.mk41v.sxr4.1644.s1t09.wav
7:35.45 80367884 B --- -- ----- wav 1.0000 ph2017-07-29.mk41v.sxr4.1644.s1t10.wav
2:52.04 30350252 B --- -- ----- wav 1.0000 ph2017-07-29.mk41v.sxr4.1644.s1t11.wav
3:48.39 40310972 B --- -- ----- wav 1.0000 ph2017-07-29.mk41v.sxr4.1644.s1t12.wav
7:41.22 81372188 B --- -- ----- wav 1.0000 ph2017-07-29.mk41v.sxr4.1644.s1t13.wav
1:03.60 11254364 B --- -- ----- wav 1.0000 ph2017-07-29.mk41v.sxr4.1644.s2t01.wav
23:16.02 246259148 B --- -- ----- wav 1.0000 ph2017-07-29.mk41v.sxr4.1644.s2t02.wav
11:09.70 118176284 B --- -- ----- wav 1.0000 ph2017-07-29.mk41v.sxr4.1644.s2t03.wav
3:32.16 37434476 B --- -- ----- wav 1.0000 ph2017-07-29.mk41v.sxr4.1644.s2t04.wav
1:17.02 13587548 B --- -- ----- wav 1.0000 ph2017-07-29.mk41v.sxr4.1644.s2t05.wav
3:12.55 33998204 B --- -- ----- wav 1.0000 ph2017-07-29.mk41v.sxr4.1644.s2t06.wav
9:57.20 105357884 B --- -- ----- wav 1.0000 ph2017-07-29.mk41v.sxr4.1644.s2t07.wav
4:34.12 48361868 B --- -- ----- wav 1.0000 ph2017-07-29.mk41v.sxr4.1644.s2t08.wav
16:04.42 170148428 B --- -- ----- wav 1.0000 ph2017-07-29.mk41v.sxr4.1644.s2t09.wav
3:58.53 42107900 B --- -- ----- wav 1.0000 ph2017-07-29.mk41v.sxr4.1644.s2t10.wav
6:25.34 67994012 B --- -- ----- wav 1.0000 ph2017-07-29.mk41v.sxr4.1644.s2t11.wav
163:27.40 1730049936 B 1.0000 (24 files)
Show Checksums
ffp
ph2017-07-29.mk41v.sxr4.1644.s1t01.flac:33afb93c4a71c99765f22a9b8f5b0989
ph2017-07-29.mk41v.sxr4.1644.s1t02.flac:f8e1822dd3ad5dc3c7e2c318c00a84d9
ph2017-07-29.mk41v.sxr4.1644.s1t03.flac:c406de955a25d33f53e9398f79c543e5
ph2017-07-29.mk41v.sxr4.1644.s1t04.flac:5a1e9b196591ce446c4b498fe34d04cf
ph2017-07-29.mk41v.sxr4.1644.s1t05.flac:696a49018391483909187764e890c2d0
ph2017-07-29.mk41v.sxr4.1644.s1t06.flac:c2db52defbec2ddaa22bc2d0a99c7703
ph2017-07-29.mk41v.sxr4.1644.s1t07.flac:607c7b6ac729c81428e068aec0122283
ph2017-07-29.mk41v.sxr4.1644.s1t08.flac:fc53c364b5929cbd8119c00e8fd3cd6f
ph2017-07-29.mk41v.sxr4.1644.s1t09.flac:9886095b756d30f05f7aade1e0fadaff
ph2017-07-29.mk41v.sxr4.1644.s1t10.flac:1b9ca56af7b8f9fc799bdba758608bd9
ph2017-07-29.mk41v.sxr4.1644.s1t11.flac:2cf52c76fd71f012b743230203af9797
ph2017-07-29.mk41v.sxr4.1644.s1t12.flac:56db2f7c11d3d7b50eb3d5d46926b0ca
ph2017-07-29.mk41v.sxr4.1644.s1t13.flac:86caaa6433f63ee0232349213e2f97fb
ph2017-07-29.mk41v.sxr4.1644.s2t01.flac:602b5a7b21139143e1c43ae15b921391
ph2017-07-29.mk41v.sxr4.1644.s2t02.flac:85bafee0353324eae30edbdfadb55192
ph2017-07-29.mk41v.sxr4.1644.s2t03.flac:df9a5cf9a38028358b728baa65d86962
ph2017-07-29.mk41v.sxr4.1644.s2t04.flac:acf3af443c07d0477c872ab222e71ed5
ph2017-07-29.mk41v.sxr4.1644.s2t05.flac:d92c802c4a970228bc8dd9f20997effc
ph2017-07-29.mk41v.sxr4.1644.s2t06.flac:1fe102a2b73228245423fd6edf79cef8
ph2017-07-29.mk41v.sxr4.1644.s2t07.flac:429ad8ea27bc1cc6db83096ceed3f164
ph2017-07-29.mk41v.sxr4.1644.s2t08.flac:387cc41a818f61fbe30dcce3845d60c8
ph2017-07-29.mk41v.sxr4.1644.s2t09.flac:0fa0c8e4121acec0aa13f9ac22fdbc42
ph2017-07-29.mk41v.sxr4.1644.s2t10.flac:6209e26d8c91a32e3d776f3ffb18f5a4
ph2017-07-29.mk41v.sxr4.1644.s2t11.flac:8320ed87ce0c1b8dadfafcfde6ae8579

Comments
Add Comment
Other Sources (comments)
flac16 44.1khz ... (0) flac24 48khz ... (0) flac24 48khz ... (1) flac16 44.1khz ... (1) flac16 44.1khz... (0) flac16 48khz ... (0) flac24 96khz ... (0) flac24 48khz ... (0) flac24 96khz ... (0) flac16 44.1khz ... (0) flac24 96khz ... (0) flac24 96khz ... (0) flac16 44.1khz ... (0) flac16 44.1khz... (0)
Date User Comment