Browse Collections Artists Sources   Search Dates

Add Show    List Management    Help


Phish 07/30/17
Madison Square Garden, New York, NY
Comments Add Comment    Source Collectors    Add to Collection    Add to Want List    History
Source # 139063 Other Sources
Entered by Matt Vernon
Checksums ffp
Disc Counts 0 / 0
Media Size
Date Circulated
Date Added
08/13/2017
08/13/2017
Source Summary flac16 44.1khz Schoeps mk41v>kc5>cmc6>Sonosax SX-R4 (24bit/96khz). Location: mics were dfc DIN 2 rows behind the lighting booth. Transfer: WAV>USB>MacBook Pro>Audacity(tracking,fades)>Sony Soundforge Convrt(resample(izotope,higher than highest settings)/dither(mbit+/ultra, high dither)to 16 bit/44.1k)>XAct(FLAC 8,ffp,fix sbe,tagging). Recorded and transferred by Andy Murray 
Source Information - Download Text | Download Zip
Phish
2017-07-30
Madison Square Garden
New York, NY

Bakers Dozen Night 8

mics were dfc DIN 2 rows behind the lighting booth

Schoeps mk41v>kc5>cmc6>Sonosax SX-R4 (24bit/96khz)

WAV>USB>MacBook Pro>Audacity(tracking,fades)>Sony Soundforge Convrt(resample(izotope,higher than highest settings)/dither(mbit+/ultra, high dither)to 16 bit/44.1k)>XAct(FLAC 8,ffp,fix sbe,tagging)

Recorded and transferred by Andy Murray

Set 1

01 crowd set 1
02 The Curtain With
03 Runaway Jim
04 Waking Up Dead
05 Esther
06 Home
07 Brian & Robert
08 Nellie Kane
09 Colonel Forbin's Ascent
10 Fly Famous Mockingbird
11 David Bowie

Set 2

01 crowd set 2
02 Drowned
03 A Song I Heard The Ocean Sing
04 Harpua
05 Also Sprach Zarathustra
06 Golgi Apparatus
07 In The Good Old Summer Time
08 Encore Break
09 The Wind Cries Mary

;flac fingerprints generated by xACT 2.39 on 2017-08-13 04:53:41 +0000

ph2017-07-30.mk41v.sxr4.1644.s1t01.flac:508ad9f46e3bf499d8b09c19d673a6eb
ph2017-07-30.mk41v.sxr4.1644.s1t02.flac:be04f5111c4e78f17a7a21041f0a7e32
ph2017-07-30.mk41v.sxr4.1644.s1t03.flac:31bc4d208c0c2890ad19746e3e24897b
ph2017-07-30.mk41v.sxr4.1644.s1t04.flac:f29308f84c2950033525260fa78a5ad0
ph2017-07-30.mk41v.sxr4.1644.s1t05.flac:cd44d0e983a1077062ae4cd4f772ecdd
ph2017-07-30.mk41v.sxr4.1644.s1t06.flac:af585248c388ec5ab97c6e8a184546e5
ph2017-07-30.mk41v.sxr4.1644.s1t07.flac:931c72c998f4c45968164aaf70803255
ph2017-07-30.mk41v.sxr4.1644.s1t08.flac:2361a88a0606a60e596646784d78ad70
ph2017-07-30.mk41v.sxr4.1644.s1t09.flac:cf712741596be2449fc9995f00d46c2f
ph2017-07-30.mk41v.sxr4.1644.s1t10.flac:a8eedc0572d0c038600e8fc3315b50ac
ph2017-07-30.mk41v.sxr4.1644.s1t11.flac:5e7cb7c4cce24ce41fdb499253b7a5af
ph2017-07-30.mk41v.sxr4.1644.s2t01.flac:b1f34d7c23786e33fc5ee0de54b0226d
ph2017-07-30.mk41v.sxr4.1644.s2t02.flac:60c32a77f2ef411abad4866a38bfd22b
ph2017-07-30.mk41v.sxr4.1644.s2t03.flac:471e93b6880571e918c6e4c266425fbb
ph2017-07-30.mk41v.sxr4.1644.s2t04.flac:3dbb96ad8e6d4a1a8d87d272971632ff
ph2017-07-30.mk41v.sxr4.1644.s2t05.flac:15830e0127b33187a24264d4e5731efc
ph2017-07-30.mk41v.sxr4.1644.s2t06.flac:e67d22d9a455efe3558aa5c1ac3fa8a0
ph2017-07-30.mk41v.sxr4.1644.s2t07.flac:68346dff08b39a4195acc31576c441d3
ph2017-07-30.mk41v.sxr4.1644.s2t08.flac:eb6b6510a9423f62b20f9bbdda75c1d2
ph2017-07-30.mk41v.sxr4.1644.s2t09.flac:0a7b48a897c7564c0c49cedc94613ee5

length expanded size cdr WAVE problems fmt ratio filename
1:32.15 16264124 B --- -- ----- wav 1.0000 ph2017-07-30.mk41v.sxr4.1644.s1t01.wav
13:57.17 147686828 B --- -- ----- wav 1.0000 ph2017-07-30.mk41v.sxr4.1644.s1t02.wav
10:34.21 111887036 B --- -- ----- wav 1.0000 ph2017-07-30.mk41v.sxr4.1644.s1t03.wav
7:06.11 75172316 B --- -- ----- wav 1.0000 ph2017-07-30.mk41v.sxr4.1644.s1t04.wav
9:48.40 103817324 B --- -- ----- wav 1.0000 ph2017-07-30.mk41v.sxr4.1644.s1t05.wav
8:56.26 94611596 B --- -- ----- wav 1.0000 ph2017-07-30.mk41v.sxr4.1644.s1t06.wav
3:22.56 35764556 B --- -- ----- wav 1.0000 ph2017-07-30.mk41v.sxr4.1644.s1t07.wav
3:09.11 33365516 B --- -- ----- wav 1.0000 ph2017-07-30.mk41v.sxr4.1644.s1t08.wav
5:46.31 61107356 B --- -- ----- wav 1.0000 ph2017-07-30.mk41v.sxr4.1644.s1t09.wav
7:49.47 82842188 B --- -- ----- wav 1.0000 ph2017-07-30.mk41v.sxr4.1644.s1t10.wav
12:24.06 131255756 B --- -- ----- wav 1.0000 ph2017-07-30.mk41v.sxr4.1644.s1t11.wav
1:07.47 11929388 B --- -- ----- wav 1.0000 ph2017-07-30.mk41v.sxr4.1644.s2t01.wav
21:36.32 228689708 B --- -- ----- wav 1.0000 ph2017-07-30.mk41v.sxr4.1644.s2t02.wav
18:01.24 190744892 B --- -- ----- wav 1.0000 ph2017-07-30.mk41v.sxr4.1644.s2t03.wav
17:17.31 182999756 B --- -- ----- wav 1.0000 ph2017-07-30.mk41v.sxr4.1644.s2t04.wav
8:28.35 89693564 B --- -- ----- wav 1.0000 ph2017-07-30.mk41v.sxr4.1644.s2t05.wav
5:49.58 61700060 B --- -- ----- wav 1.0000 ph2017-07-30.mk41v.sxr4.1644.s2t06.wav
2:45.63 29254220 B --- -- ----- wav 1.0000 ph2017-07-30.mk41v.sxr4.1644.s2t07.wav
3:25.70 36326684 B --- -- ----- wav 1.0000 ph2017-07-30.mk41v.sxr4.1644.s2t08.wav
4:14.48 44918540 B --- -- ----- wav 1.0000 ph2017-07-30.mk41v.sxr4.1644.s2t09.wav
167:14.14 1770031408 B 1.0000 (20 files)
Show Checksums
ffp
ph2017-07-30.mk41v.sxr4.1644.s1t01.flac:508ad9f46e3bf499d8b09c19d673a6eb
ph2017-07-30.mk41v.sxr4.1644.s1t02.flac:be04f5111c4e78f17a7a21041f0a7e32
ph2017-07-30.mk41v.sxr4.1644.s1t03.flac:31bc4d208c0c2890ad19746e3e24897b
ph2017-07-30.mk41v.sxr4.1644.s1t04.flac:f29308f84c2950033525260fa78a5ad0
ph2017-07-30.mk41v.sxr4.1644.s1t05.flac:cd44d0e983a1077062ae4cd4f772ecdd
ph2017-07-30.mk41v.sxr4.1644.s1t06.flac:af585248c388ec5ab97c6e8a184546e5
ph2017-07-30.mk41v.sxr4.1644.s1t07.flac:931c72c998f4c45968164aaf70803255
ph2017-07-30.mk41v.sxr4.1644.s1t08.flac:2361a88a0606a60e596646784d78ad70
ph2017-07-30.mk41v.sxr4.1644.s1t09.flac:cf712741596be2449fc9995f00d46c2f
ph2017-07-30.mk41v.sxr4.1644.s1t10.flac:a8eedc0572d0c038600e8fc3315b50ac
ph2017-07-30.mk41v.sxr4.1644.s1t11.flac:5e7cb7c4cce24ce41fdb499253b7a5af
ph2017-07-30.mk41v.sxr4.1644.s2t01.flac:b1f34d7c23786e33fc5ee0de54b0226d
ph2017-07-30.mk41v.sxr4.1644.s2t02.flac:60c32a77f2ef411abad4866a38bfd22b
ph2017-07-30.mk41v.sxr4.1644.s2t03.flac:471e93b6880571e918c6e4c266425fbb
ph2017-07-30.mk41v.sxr4.1644.s2t04.flac:3dbb96ad8e6d4a1a8d87d272971632ff
ph2017-07-30.mk41v.sxr4.1644.s2t05.flac:15830e0127b33187a24264d4e5731efc
ph2017-07-30.mk41v.sxr4.1644.s2t06.flac:e67d22d9a455efe3558aa5c1ac3fa8a0
ph2017-07-30.mk41v.sxr4.1644.s2t07.flac:68346dff08b39a4195acc31576c441d3
ph2017-07-30.mk41v.sxr4.1644.s2t08.flac:eb6b6510a9423f62b20f9bbdda75c1d2
ph2017-07-30.mk41v.sxr4.1644.s2t09.flac:0a7b48a897c7564c0c49cedc94613ee5

Comments
Add Comment
Other Sources (comments)
flac16 44.1khz ... (0) flac24 48khz ... (0) flac24 48khz ... (0) flac24 48khz ... (0) flac16 44.1khz ... (0) flac16 44.1khz ... (0) flac16 44.1khz ... (0) flac24 48khz ... (0) flac16 44.1khz ... (0) flac24 48khz ... (0) flac16 44.1khz... (0) flac24 48khz ... (0) flac24 48khz ... (0) flac16 48khz ... (0) flac24 96khz ... (0) flac24 96khz ... (0) flac16 44.1khz ... (0) flac24 96khz ... (0) flac24 96khz ... (0) flac16 44.1khz ... (0) flac16 44.1khz ... (1) flac16 44.1khz ... (0)
Date User Comment