Browse Collections Artists Sources   Search Dates

Add Show    List Management    Help


Phish 07/28/17
Madison Square Garden, New York, NY
Comments Add Comment    Source Collectors    Add to Collection    Add to Want List    History
Source # 139065 Other Sources
Entered by Matt Vernon
Checksums ffp
Disc Counts 0 / 0
Media Size
Date Circulated
Date Added
08/13/2017
08/13/2017
Source Summary flac16 44.1khz Schoeps mk22>nbob actives>Naiant PFAs>Sonosax SX-R4 (24bit/96khz). Location: mics were left of center NOS front row of taper section. Transfer: WAV>USB>MacBook Pro>Audacity(tracking,fades)>Sony Soundforge Convrt(resample(izotope,higher than highest settings)/dither(mbit+/ultra, high dither)to 16 bit/44.1k)>XAct(FLAC 8,ffp,fix sbe,tagging). Recorded and transferred by Andy Murray 
Source Information - Download Text | Download Zip
Phish
2017-07-28
Madison Square Garden
New York, NY

Bakers Dozen Night 6

mics were left of center NOS front row of taper section

Schoeps mk22>nbob actives>Naiant PFAs>Sonosax SX-R4 (24bit/96khz)

WAV>USB>MacBook Pro>Audacity(tracking,fades)>Sony Soundforge Convrt(resample(izotope,higher than highest settings)/dither(mbit+/ultra, high dither)to 16 bit/44.1k)>XAct(FLAC 8,ffp,fix sbe,tagging)

Recorded and transferred by Andy Murray

Set 1

01 crowd set 1
02 Chocolate Rain
03 Ass Handed
04 Free
05 Weigh >
06 Undermind >
07 The Oh Kee Pah Ceremony
08 The Dogs >
09 Destiny Unbound
10 Divided Sky
11 Things People Do
12 Sand

Set 2

01 crowd set 2
02 Have Mercy
03 Chalkdust Torture
04 You Sexy Thing >
05 Mercury >
06 You Sexy Thing >
07 Backwards Down The Number Line >
08 Rock and Roll
09 encore break
10 Fee
11 Space Oddity

;flac fingerprints generated by xACT 2.39 on 2017-08-10 06:01:14 +0000

ph2017-07-28.mk22.sxr4.1644.s1t01.flac:1b7b9836c1d46cf02ab2985e20432ccd
ph2017-07-28.mk22.sxr4.1644.s1t02.flac:0a428d179c631d532c9cd8d04982a972
ph2017-07-28.mk22.sxr4.1644.s1t03.flac:c37ac35b2ccbe2a4f5868dfa688053ba
ph2017-07-28.mk22.sxr4.1644.s1t04.flac:222e8e5c84371be94de19074a455a224
ph2017-07-28.mk22.sxr4.1644.s1t05.flac:26046d7eed152060487f5a5965310a36
ph2017-07-28.mk22.sxr4.1644.s1t06.flac:2b638ee7d2c7d1d3d6979dab2c2d3e43
ph2017-07-28.mk22.sxr4.1644.s1t07.flac:05e976fb07cab7adf3a2c71e7ddd2e3c
ph2017-07-28.mk22.sxr4.1644.s1t08.flac:29f77abde723a298d5f434f3be50b5b8
ph2017-07-28.mk22.sxr4.1644.s1t09.flac:fe203b1f5e4c121dd15265351bb73ffa
ph2017-07-28.mk22.sxr4.1644.s1t10.flac:5e8dfdc0f594e5927eedca4cd5e8c12c
ph2017-07-28.mk22.sxr4.1644.s1t11.flac:345d006b2fddd0e58d0ab2ac8ad1d9cf
ph2017-07-28.mk22.sxr4.1644.s1t12.flac:1b9ca69c7e3071a26f29016bb225c13e
ph2017-07-28.mk22.sxr4.1644.s2t01.flac:7174ae9be3f816a1f7da8ba767e1f869
ph2017-07-28.mk22.sxr4.1644.s2t02.flac:67312534a24555dd82bfa153635730e2
ph2017-07-28.mk22.sxr4.1644.s2t03.flac:7d17d650edbdc7385a0b976bea3c0e87
ph2017-07-28.mk22.sxr4.1644.s2t04.flac:f758be5bf5d031bb36d2eb7d23a588f8
ph2017-07-28.mk22.sxr4.1644.s2t05.flac:f21b389422514ed651675bf0607549bc
ph2017-07-28.mk22.sxr4.1644.s2t06.flac:45d2d1d8fa2a593da3a751d08a560013
ph2017-07-28.mk22.sxr4.1644.s2t07.flac:b6b17458dc92925e4ee340326183691a
ph2017-07-28.mk22.sxr4.1644.s2t08.flac:9d05ca2e3333880b5ab6854ced9bbcbf
ph2017-07-28.mk22.sxr4.1644.s2t09.flac:c52f96b1fc1b02bc8cf0dc0edec3c8a4
ph2017-07-28.mk22.sxr4.1644.s2t10.flac:434eb16a97156ff323d304c21a088b56
ph2017-07-28.mk22.sxr4.1644.s2t11.flac:ae6f8d35f60aba202fc9cb197800777f

length expanded size cdr WAVE problems fmt ratio filename
1:09.10 12195164 B --- -- ----- wav 1.0000 ph2017-07-28.mk22.sxr4.1644.s1t01.wav
2:52.03 30347900 B --- -- ----- wav 1.0000 ph2017-07-28.mk22.sxr4.1644.s1t02.wav
1:09.01 12173996 B --- -- ----- wav 1.0000 ph2017-07-28.mk22.sxr4.1644.s1t03.wav
11:09.44 118115132 B --- -- ----- wav 1.0000 ph2017-07-28.mk22.sxr4.1644.s1t04.wav
5:24.01 57155996 B --- -- ----- wav 1.0000 ph2017-07-28.mk22.sxr4.1644.s1t05.wav
8:52.72 94014188 B --- -- ----- wav 1.0000 ph2017-07-28.mk22.sxr4.1644.s1t06.wav
1:58.15 20850524 B --- -- ----- wav 1.0000 ph2017-07-28.mk22.sxr4.1644.s1t07.wav
5:46.66 61189676 B --- -- ----- wav 1.0000 ph2017-07-28.mk22.sxr4.1644.s1t08.wav
7:49.28 82797500 B --- -- ----- wav 1.0000 ph2017-07-28.mk22.sxr4.1644.s1t09.wav
16:59.14 179784572 B --- -- ----- wav 1.0000 ph2017-07-28.mk22.sxr4.1644.s1t10.wav
3:59.60 42300764 B --- -- ----- wav 1.0000 ph2017-07-28.mk22.sxr4.1644.s1t11.wav
12:38.02 133715948 B --- -- ----- wav 1.0000 ph2017-07-28.mk22.sxr4.1644.s1t12.wav
1:43.53 18293900 B --- -- ----- wav 1.0000 ph2017-07-28.mk22.sxr4.1644.s2t01.wav
5:54.27 62509148 B --- -- ----- wav 1.0000 ph2017-07-28.mk22.sxr4.1644.s2t02.wav
24:21.40 257814524 B --- -- ----- wav 1.0000 ph2017-07-28.mk22.sxr4.1644.s2t03.wav
11:01.47 116710988 B --- -- ----- wav 1.0000 ph2017-07-28.mk22.sxr4.1644.s2t04.wav
12:20.14 130568972 B --- -- ----- wav 1.0000 ph2017-07-28.mk22.sxr4.1644.s2t05.wav
3:58.01 41985596 B --- -- ----- wav 1.0000 ph2017-07-28.mk22.sxr4.1644.s2t06.wav
9:33.12 101105468 B --- -- ----- wav 1.0000 ph2017-07-28.mk22.sxr4.1644.s2t07.wav
6:44.22 71317388 B --- -- ----- wav 1.0000 ph2017-07-28.mk22.sxr4.1644.s2t08.wav
4:23.49 46508492 B --- -- ----- wav 1.0000 ph2017-07-28.mk22.sxr4.1644.s2t09.wav
6:54.24 73086092 B --- -- ----- wav 1.0000 ph2017-07-28.mk22.sxr4.1644.s2t10.wav
5:37.16 59484476 B --- -- ----- wav 1.0000 ph2017-07-28.mk22.sxr4.1644.s2t11.wav
172:20.21 1824026404 B 1.0000 (23 files)
Show Checksums
ffp
ph2017-07-28.mk22.sxr4.1644.s1t01.flac:1b7b9836c1d46cf02ab2985e20432ccd
ph2017-07-28.mk22.sxr4.1644.s1t02.flac:0a428d179c631d532c9cd8d04982a972
ph2017-07-28.mk22.sxr4.1644.s1t03.flac:c37ac35b2ccbe2a4f5868dfa688053ba
ph2017-07-28.mk22.sxr4.1644.s1t04.flac:222e8e5c84371be94de19074a455a224
ph2017-07-28.mk22.sxr4.1644.s1t05.flac:26046d7eed152060487f5a5965310a36
ph2017-07-28.mk22.sxr4.1644.s1t06.flac:2b638ee7d2c7d1d3d6979dab2c2d3e43
ph2017-07-28.mk22.sxr4.1644.s1t07.flac:05e976fb07cab7adf3a2c71e7ddd2e3c
ph2017-07-28.mk22.sxr4.1644.s1t08.flac:29f77abde723a298d5f434f3be50b5b8
ph2017-07-28.mk22.sxr4.1644.s1t09.flac:fe203b1f5e4c121dd15265351bb73ffa
ph2017-07-28.mk22.sxr4.1644.s1t10.flac:5e8dfdc0f594e5927eedca4cd5e8c12c
ph2017-07-28.mk22.sxr4.1644.s1t11.flac:345d006b2fddd0e58d0ab2ac8ad1d9cf
ph2017-07-28.mk22.sxr4.1644.s1t12.flac:1b9ca69c7e3071a26f29016bb225c13e
ph2017-07-28.mk22.sxr4.1644.s2t01.flac:7174ae9be3f816a1f7da8ba767e1f869
ph2017-07-28.mk22.sxr4.1644.s2t02.flac:67312534a24555dd82bfa153635730e2
ph2017-07-28.mk22.sxr4.1644.s2t03.flac:7d17d650edbdc7385a0b976bea3c0e87
ph2017-07-28.mk22.sxr4.1644.s2t04.flac:f758be5bf5d031bb36d2eb7d23a588f8
ph2017-07-28.mk22.sxr4.1644.s2t05.flac:f21b389422514ed651675bf0607549bc
ph2017-07-28.mk22.sxr4.1644.s2t06.flac:45d2d1d8fa2a593da3a751d08a560013
ph2017-07-28.mk22.sxr4.1644.s2t07.flac:b6b17458dc92925e4ee340326183691a
ph2017-07-28.mk22.sxr4.1644.s2t08.flac:9d05ca2e3333880b5ab6854ced9bbcbf
ph2017-07-28.mk22.sxr4.1644.s2t09.flac:c52f96b1fc1b02bc8cf0dc0edec3c8a4
ph2017-07-28.mk22.sxr4.1644.s2t10.flac:434eb16a97156ff323d304c21a088b56
ph2017-07-28.mk22.sxr4.1644.s2t11.flac:ae6f8d35f60aba202fc9cb197800777f

Comments
Add Comment
Other Sources (comments)
flac16 44.1khz ... (0) flac24 48khz ... (0) flac16 44.1khz ... (0) flac24 48khz ... (0) flac16 44.1khz AKG... (1) flac24 48khz AKG... (1) flac16 48khz ... (0) flac24 96khz Field:... (0) flac24 48khz... (1) flac24 48khz ... (1) flac24 96khz ... (0) flac16 44.1khz ... (0) flac24 96khz ... (0) flac24 96khz ... (0) flac16 44.1khz ... (0) flac16 44.1khz... (0)
Date User Comment