Browse Collections Artists Sources   Search Dates

Add Show    List Management    Help


Phish 07/29/17
Madison Square Garden, New York, NY
Comments Add Comment    Source Collectors    Add to Collection    Add to Want List    History
Source # 139067 Other Sources
Entered by Matt Vernon
Checksums ffp
Disc Counts 0 / 0
Media Size
Date Circulated
Date Added
08/13/2017
08/13/2017
Source Summary flac16 44.1khz Schoeps mk22>nbob actives>Naiant PFAs>Sonosax SX-R4 (24bit/96khz). Location: mics were right of center NOS front row of taper section. Transfer: WAV>USB>MacBook Pro>Audacity(tracking,fades)>Sony Soundforge Convrt(resample(izotope,higher than highest settings)/dither(mbit+/ultra, high dither)to 16 bit/44.1k)>XAct(FLAC 8,ffp,fix sbe,tagging). Recorded and transferred by Andy Murray 
Source Information - Download Text | Download Zip
Phish
2017-07-28
Madison Square Garden
New York, NY

Bakers Dozen Night 7

mics were right of center NOS front row of taper section

Schoeps mk22>nbob actives>Naiant PFAs>Sonosax SX-R4 (24bit/96khz)

WAV>USB>MacBook Pro>Audacity(tracking,fades)>Sony Soundforge Convrt(resample(izotope,higher than highest settings)/dither(mbit+/ultra, high dither)to 16 bit/44.1k)>XAct(FLAC 8,ffp,fix sbe,tagging)

Recorded and transferred by Andy Murray

Set 1

01 crowd set 1
02 Llama
03 Wilson >
04 Stealing Time From the Faulty Plan >
05 Ya Mar
06 Tela
07 The Birds >
08 The Line
09 Water in the Sky
10 Vultures >
11 Train Song >
12 Horn
13 I Am The Walrus

Set 2

01 crowd set 2
02 Blaze On >
03 Twenty Years Later >
04 Alumni Blues >
05 Letter to Jimmy Page >
06 Alumni Blues >
07 Meatstick >
08 Dirt >
09 Harry Hood
10 encore break
11 Cinnamon Girl

;flac fingerprints generated by xACT 2.39 on 2017-08-10 19:50:21 +0000

ph2017-07-29.mk22.sxr4.1644.s1t01.flac:ed78878ad9b70aa3505fd434c7af4e09
ph2017-07-29.mk22.sxr4.1644.s1t02.flac:5a9eaee1c7e1300301b0ff4b500c1eeb
ph2017-07-29.mk22.sxr4.1644.s1t03.flac:70bcdb47d86af180895c06bbbe85acae
ph2017-07-29.mk22.sxr4.1644.s1t04.flac:1a77a495cf76296ab838e8d5a5041202
ph2017-07-29.mk22.sxr4.1644.s1t05.flac:f9d8763e4f0faafa54ae601f955f052c
ph2017-07-29.mk22.sxr4.1644.s1t06.flac:a1ae8cdedba668283c4c46a4b7b92c1d
ph2017-07-29.mk22.sxr4.1644.s1t07.flac:e2e706744ed3aa3eb986ddd8d27d4c30
ph2017-07-29.mk22.sxr4.1644.s1t08.flac:182967ca5dcfb81f923791fd723e5461
ph2017-07-29.mk22.sxr4.1644.s1t09.flac:805f75930a121d650dc3bfbaff91150a
ph2017-07-29.mk22.sxr4.1644.s1t10.flac:18158b0fe982cc90e2678673eec31560
ph2017-07-29.mk22.sxr4.1644.s1t11.flac:100220fe826b9189de905d75f3b17aae
ph2017-07-29.mk22.sxr4.1644.s1t12.flac:8f56ba04c57fae61e744555f20ff064f
ph2017-07-29.mk22.sxr4.1644.s1t13.flac:108656b946842cf02b03ba2ed77a59f2
ph2017-07-29.mk22.sxr4.1644.s2t01.flac:a0692aafbaaa26a0ac7905bea5cf2654
ph2017-07-29.mk22.sxr4.1644.s2t02.flac:290ca83a252ea5756fe80c8910b1e7b9
ph2017-07-29.mk22.sxr4.1644.s2t03.flac:1269def4347d394f9dec94e086c8176c
ph2017-07-29.mk22.sxr4.1644.s2t04.flac:ad0cf238d55daafc266341281940b0b8
ph2017-07-29.mk22.sxr4.1644.s2t05.flac:c842fd5dd5aa3fc1bb5124bdc4800144
ph2017-07-29.mk22.sxr4.1644.s2t06.flac:fc4be4c2e5fa5e3c089021dcd2e90184
ph2017-07-29.mk22.sxr4.1644.s2t07.flac:b81f7e594c2d9f09d9b583e03ae5e687
ph2017-07-29.mk22.sxr4.1644.s2t08.flac:710a0516e54b3979e57108e9eaca7cc2
ph2017-07-29.mk22.sxr4.1644.s2t09.flac:30e5fa738529a61b6cf40067f023f1d6
ph2017-07-29.mk22.sxr4.1644.s2t10.flac:4a29a5dc720b4edf103aa637ac3c0fae
ph2017-07-29.mk22.sxr4.1644.s2t11.flac:94294d6be01bc75530515cf776504265

length expanded size cdr WAVE problems fmt ratio filename
1:20.33 14189660 B --- -- ----- wav 1.0000 ph2017-07-29.mk22.sxr4.1644.s1t01.wav
4:34.60 48474764 B --- -- ----- wav 1.0000 ph2017-07-29.mk22.sxr4.1644.s1t02.wav
9:11.01 97198796 B --- -- ----- wav 1.0000 ph2017-07-29.mk22.sxr4.1644.s1t03.wav
8:24.68 89065580 B --- -- ----- wav 1.0000 ph2017-07-29.mk22.sxr4.1644.s1t04.wav
9:48.53 103847900 B --- -- ----- wav 1.0000 ph2017-07-29.mk22.sxr4.1644.s1t05.wav
7:20.24 77672492 B --- -- ----- wav 1.0000 ph2017-07-29.mk22.sxr4.1644.s1t06.wav
4:21.40 46134524 B --- -- ----- wav 1.0000 ph2017-07-29.mk22.sxr4.1644.s1t07.wav
7:11.48 76141340 B --- -- ----- wav 1.0000 ph2017-07-29.mk22.sxr4.1644.s1t08.wav
4:44.62 50243468 B --- -- ----- wav 1.0000 ph2017-07-29.mk22.sxr4.1644.s1t09.wav
7:35.45 80367884 B --- -- ----- wav 1.0000 ph2017-07-29.mk22.sxr4.1644.s1t10.wav
2:52.04 30350252 B --- -- ----- wav 1.0000 ph2017-07-29.mk22.sxr4.1644.s1t11.wav
3:48.39 40310972 B --- -- ----- wav 1.0000 ph2017-07-29.mk22.sxr4.1644.s1t12.wav
7:41.22 81372188 B --- -- ----- wav 1.0000 ph2017-07-29.mk22.sxr4.1644.s1t13.wav
1:03.60 11254364 B --- -- ----- wav 1.0000 ph2017-07-29.mk22.sxr4.1644.s2t01.wav
23:16.02 246259148 B --- -- ----- wav 1.0000 ph2017-07-29.mk22.sxr4.1644.s2t02.wav
11:09.70 118176284 B --- -- ----- wav 1.0000 ph2017-07-29.mk22.sxr4.1644.s2t03.wav
3:32.16 37434476 B --- -- ----- wav 1.0000 ph2017-07-29.mk22.sxr4.1644.s2t04.wav
1:17.02 13587548 B --- -- ----- wav 1.0000 ph2017-07-29.mk22.sxr4.1644.s2t05.wav
3:12.55 33998204 B --- -- ----- wav 1.0000 ph2017-07-29.mk22.sxr4.1644.s2t06.wav
9:57.20 105357884 B --- -- ----- wav 1.0000 ph2017-07-29.mk22.sxr4.1644.s2t07.wav
4:34.12 48361868 B --- -- ----- wav 1.0000 ph2017-07-29.mk22.sxr4.1644.s2t08.wav
16:04.42 170148428 B --- -- ----- wav 1.0000 ph2017-07-29.mk22.sxr4.1644.s2t09.wav
3:58.53 42107900 B --- -- ----- wav 1.0000 ph2017-07-29.mk22.sxr4.1644.s2t10.wav
6:25.34 67994012 B --- -- ----- wav 1.0000 ph2017-07-29.mk22.sxr4.1644.s2t11.wav
163:27.40 1730049936 B 1.0000 (24 files)
Show Checksums
ffp
ph2017-07-29.mk22.sxr4.1644.s1t01.flac:ed78878ad9b70aa3505fd434c7af4e09
ph2017-07-29.mk22.sxr4.1644.s1t02.flac:5a9eaee1c7e1300301b0ff4b500c1eeb
ph2017-07-29.mk22.sxr4.1644.s1t03.flac:70bcdb47d86af180895c06bbbe85acae
ph2017-07-29.mk22.sxr4.1644.s1t04.flac:1a77a495cf76296ab838e8d5a5041202
ph2017-07-29.mk22.sxr4.1644.s1t05.flac:f9d8763e4f0faafa54ae601f955f052c
ph2017-07-29.mk22.sxr4.1644.s1t06.flac:a1ae8cdedba668283c4c46a4b7b92c1d
ph2017-07-29.mk22.sxr4.1644.s1t07.flac:e2e706744ed3aa3eb986ddd8d27d4c30
ph2017-07-29.mk22.sxr4.1644.s1t08.flac:182967ca5dcfb81f923791fd723e5461
ph2017-07-29.mk22.sxr4.1644.s1t09.flac:805f75930a121d650dc3bfbaff91150a
ph2017-07-29.mk22.sxr4.1644.s1t10.flac:18158b0fe982cc90e2678673eec31560
ph2017-07-29.mk22.sxr4.1644.s1t11.flac:100220fe826b9189de905d75f3b17aae
ph2017-07-29.mk22.sxr4.1644.s1t12.flac:8f56ba04c57fae61e744555f20ff064f
ph2017-07-29.mk22.sxr4.1644.s1t13.flac:108656b946842cf02b03ba2ed77a59f2
ph2017-07-29.mk22.sxr4.1644.s2t01.flac:a0692aafbaaa26a0ac7905bea5cf2654
ph2017-07-29.mk22.sxr4.1644.s2t02.flac:290ca83a252ea5756fe80c8910b1e7b9
ph2017-07-29.mk22.sxr4.1644.s2t03.flac:1269def4347d394f9dec94e086c8176c
ph2017-07-29.mk22.sxr4.1644.s2t04.flac:ad0cf238d55daafc266341281940b0b8
ph2017-07-29.mk22.sxr4.1644.s2t05.flac:c842fd5dd5aa3fc1bb5124bdc4800144
ph2017-07-29.mk22.sxr4.1644.s2t06.flac:fc4be4c2e5fa5e3c089021dcd2e90184
ph2017-07-29.mk22.sxr4.1644.s2t07.flac:b81f7e594c2d9f09d9b583e03ae5e687
ph2017-07-29.mk22.sxr4.1644.s2t08.flac:710a0516e54b3979e57108e9eaca7cc2
ph2017-07-29.mk22.sxr4.1644.s2t09.flac:30e5fa738529a61b6cf40067f023f1d6
ph2017-07-29.mk22.sxr4.1644.s2t10.flac:4a29a5dc720b4edf103aa637ac3c0fae
ph2017-07-29.mk22.sxr4.1644.s2t11.flac:94294d6be01bc75530515cf776504265

Comments
Add Comment
Other Sources (comments)
flac16 44.1khz ... (0) flac24 48khz ... (0) flac24 48khz ... (1) flac16 44.1khz ... (1) flac16 44.1khz... (0) flac16 48khz ... (0) flac24 96khz ... (0) flac24 48khz ... (0) flac16 44.1khz ... (0) flac24 96khz ... (0) flac24 96khz ... (0) flac24 96khz ... (0) flac16 44.1khz ... (0) flac16 44.1khz... (0)
Date User Comment