Browse Collections Artists Sources   Search Dates

Add Show    List Management    Help


Phish 07/30/17
Madison Square Garden, New York, NY
Comments Add Comment    Source Collectors    Add to Collection    Add to Want List    History
Source # 139069 Other Sources
Entered by Matt Vernon
Checksums ffp
Disc Counts 0 / 0
Media Size
Date Circulated
Date Added
08/13/2017
08/13/2017
Source Summary flac16 44.1khz Schoeps mk22/nbob actives/Naiant PFAs>Sonosax SX-R4 (24bit/96khz). Location: mics were dfc DIN 2 rows behind the lighting booth. Transfer: WAV>USB>MacBook Pro>Audacity(tracking,fades)>Sony Soundforge Convrt(resample(izotope,higher than highest settings)/dither(mbit+/ultra, high dither)to 16 bit/44.1k)>XAct(FLAC 8,ffp,fix sbe,tagging). Recorded and transferred by Andy Murray  
Source Information - Download Text | Download Zip
Phish
2017-07-30
Madison Square Garden
New York, NY

Bakers Dozen Night 8

mics were dfc DIN 2 rows behind the lighting booth

Schoeps mk22/nbob actives/Naiant PFAs>Sonosax SX-R4 (24bit/96khz)

WAV>USB>MacBook Pro>Audacity(tracking,fades)>Sony Soundforge Convrt(resample(izotope,higher than highest settings)/dither(mbit+/ultra, high dither)to 16 bit/44.1k)>XAct(FLAC 8,ffp,fix sbe,tagging)

Recorded and transferred by Andy Murray

Set 1

01 crowd set 1
02 The Curtain With
03 Runaway Jim
04 Waking Up Dead
05 Esther
06 Home
07 Brian & Robert
08 Nellie Kane
09 Colonel Forbin's Ascent
10 Fly Famous Mockingbird
11 David Bowie

Set 2

01 crowd set 2
02 Drowned
03 A Song I Heard The Ocean Sing
04 Harpua
05 Also Sprach Zarathustra
06 Golgi Apparatus
07 In The Good Old Summer Time
08 Encore Break
09 The Wind Cries Mary

;flac fingerprints generated by xACT 2.39 on 2017-08-13 05:07:25 +0000

ph2017-07-30.mk22.sxr4.1644.s1t01.flac:a57ab1935fb30ffe24245839acb1ebe6
ph2017-07-30.mk22.sxr4.1644.s1t02.flac:7879c8559959bb691a4dd33d1f6024e0
ph2017-07-30.mk22.sxr4.1644.s1t03.flac:413baa438b6a468c90b07a2467568dde
ph2017-07-30.mk22.sxr4.1644.s1t04.flac:774af78fa51661067810e648a3263832
ph2017-07-30.mk22.sxr4.1644.s1t05.flac:a6207015635b38e30b2827940211f475
ph2017-07-30.mk22.sxr4.1644.s1t06.flac:bde71c2db5b969e9a52f678fd58d464b
ph2017-07-30.mk22.sxr4.1644.s1t07.flac:4877082e05bb7cbe51c7ccf6201e9453
ph2017-07-30.mk22.sxr4.1644.s1t08.flac:c0108722f1c555713222d01aff0ff627
ph2017-07-30.mk22.sxr4.1644.s1t09.flac:3977b677d52cb797b3642a681942eb87
ph2017-07-30.mk22.sxr4.1644.s1t10.flac:921e28f33bed786d0842c79fe0e06108
ph2017-07-30.mk22.sxr4.1644.s1t11.flac:bdd45ca5850309aa3a9bd7067b4dd851
ph2017-07-30.mk22.sxr4.1644.s2t01.flac:df0afb6fb6098f8e66bf7f54308f49eb
ph2017-07-30.mk22.sxr4.1644.s2t02.flac:fce4dc5aed41840c022f3d3ad2a2eb88
ph2017-07-30.mk22.sxr4.1644.s2t03.flac:ae3aa18b952f89e2c9ad0ed545bb5b8d
ph2017-07-30.mk22.sxr4.1644.s2t04.flac:a6b6584eebd7aa534d0e67d35ceda347
ph2017-07-30.mk22.sxr4.1644.s2t05.flac:2a2623bac1da006ad4b2b5744adf8375
ph2017-07-30.mk22.sxr4.1644.s2t06.flac:d1fee107c5a9ea5495b084fd6ef1995b
ph2017-07-30.mk22.sxr4.1644.s2t07.flac:5fbd1bcdc655e75663ce2d882623fe31
ph2017-07-30.mk22.sxr4.1644.s2t08.flac:7ec4f701f22055da36a9d3407c91f7a5
ph2017-07-30.mk22.sxr4.1644.s2t09.flac:c34566de03a1366c269977693aab74c0

length expanded size cdr WAVE problems fmt ratio filename
1:32.15 16264124 B --- -- ----- wav 1.0000 ph2017-07-30.mk22.sxr4.1644.s1t01.wav
13:57.17 147686828 B --- -- ----- wav 1.0000 ph2017-07-30.mk22.sxr4.1644.s1t02.wav
10:34.21 111887036 B --- -- ----- wav 1.0000 ph2017-07-30.mk22.sxr4.1644.s1t03.wav
7:06.11 75172316 B --- -- ----- wav 1.0000 ph2017-07-30.mk22.sxr4.1644.s1t04.wav
9:48.40 103817324 B --- -- ----- wav 1.0000 ph2017-07-30.mk22.sxr4.1644.s1t05.wav
8:56.26 94611596 B --- -- ----- wav 1.0000 ph2017-07-30.mk22.sxr4.1644.s1t06.wav
3:22.56 35764556 B --- -- ----- wav 1.0000 ph2017-07-30.mk22.sxr4.1644.s1t07.wav
3:09.11 33365516 B --- -- ----- wav 1.0000 ph2017-07-30.mk22.sxr4.1644.s1t08.wav
5:46.31 61107356 B --- -- ----- wav 1.0000 ph2017-07-30.mk22.sxr4.1644.s1t09.wav
7:49.47 82842188 B --- -- ----- wav 1.0000 ph2017-07-30.mk22.sxr4.1644.s1t10.wav
12:24.06 131255756 B --- -- ----- wav 1.0000 ph2017-07-30.mk22.sxr4.1644.s1t11.wav
1:07.47 11929388 B --- -- ----- wav 1.0000 ph2017-07-30.mk22.sxr4.1644.s2t01.wav
21:36.32 228689708 B --- -- ----- wav 1.0000 ph2017-07-30.mk22.sxr4.1644.s2t02.wav
18:01.24 190744892 B --- -- ----- wav 1.0000 ph2017-07-30.mk22.sxr4.1644.s2t03.wav
17:17.31 182999756 B --- -- ----- wav 1.0000 ph2017-07-30.mk22.sxr4.1644.s2t04.wav
8:28.35 89693564 B --- -- ----- wav 1.0000 ph2017-07-30.mk22.sxr4.1644.s2t05.wav
5:49.58 61700060 B --- -- ----- wav 1.0000 ph2017-07-30.mk22.sxr4.1644.s2t06.wav
2:45.63 29254220 B --- -- ----- wav 1.0000 ph2017-07-30.mk22.sxr4.1644.s2t07.wav
3:25.70 36326684 B --- -- ----- wav 1.0000 ph2017-07-30.mk22.sxr4.1644.s2t08.wav
4:14.48 44918540 B --- -- ----- wav 1.0000 ph2017-07-30.mk22.sxr4.1644.s2t09.wav
167:14.14 1770031408 B 1.0000 (20 files)
Show Checksums
ffp
ph2017-07-30.mk22.sxr4.1644.s1t01.flac:a57ab1935fb30ffe24245839acb1ebe6
ph2017-07-30.mk22.sxr4.1644.s1t02.flac:7879c8559959bb691a4dd33d1f6024e0
ph2017-07-30.mk22.sxr4.1644.s1t03.flac:413baa438b6a468c90b07a2467568dde
ph2017-07-30.mk22.sxr4.1644.s1t04.flac:774af78fa51661067810e648a3263832
ph2017-07-30.mk22.sxr4.1644.s1t05.flac:a6207015635b38e30b2827940211f475
ph2017-07-30.mk22.sxr4.1644.s1t06.flac:bde71c2db5b969e9a52f678fd58d464b
ph2017-07-30.mk22.sxr4.1644.s1t07.flac:4877082e05bb7cbe51c7ccf6201e9453
ph2017-07-30.mk22.sxr4.1644.s1t08.flac:c0108722f1c555713222d01aff0ff627
ph2017-07-30.mk22.sxr4.1644.s1t09.flac:3977b677d52cb797b3642a681942eb87
ph2017-07-30.mk22.sxr4.1644.s1t10.flac:921e28f33bed786d0842c79fe0e06108
ph2017-07-30.mk22.sxr4.1644.s1t11.flac:bdd45ca5850309aa3a9bd7067b4dd851
ph2017-07-30.mk22.sxr4.1644.s2t01.flac:df0afb6fb6098f8e66bf7f54308f49eb
ph2017-07-30.mk22.sxr4.1644.s2t02.flac:fce4dc5aed41840c022f3d3ad2a2eb88
ph2017-07-30.mk22.sxr4.1644.s2t03.flac:ae3aa18b952f89e2c9ad0ed545bb5b8d
ph2017-07-30.mk22.sxr4.1644.s2t04.flac:a6b6584eebd7aa534d0e67d35ceda347
ph2017-07-30.mk22.sxr4.1644.s2t05.flac:2a2623bac1da006ad4b2b5744adf8375
ph2017-07-30.mk22.sxr4.1644.s2t06.flac:d1fee107c5a9ea5495b084fd6ef1995b
ph2017-07-30.mk22.sxr4.1644.s2t07.flac:5fbd1bcdc655e75663ce2d882623fe31
ph2017-07-30.mk22.sxr4.1644.s2t08.flac:7ec4f701f22055da36a9d3407c91f7a5
ph2017-07-30.mk22.sxr4.1644.s2t09.flac:c34566de03a1366c269977693aab74c0

Comments
Add Comment
Other Sources (comments)
flac16 44.1khz ... (0) flac24 48khz ... (0) flac24 48khz ... (0) flac24 48khz ... (0) flac16 44.1khz ... (0) flac16 44.1khz ... (0) flac16 44.1khz ... (0) flac24 48khz ... (0) flac16 44.1khz ... (0) flac24 48khz ... (0) flac16 44.1khz... (0) flac24 48khz ... (0) flac24 48khz ... (0) flac16 48khz ... (0) flac24 96khz ... (0) flac16 44.1khz ... (0) flac24 96khz ... (0) flac24 96khz ... (0) flac24 96khz ... (0) flac16 44.1khz ... (0) flac16 44.1khz ... (1) flac16 44.1khz ... (0)
Date User Comment