Browse Collections Artists Sources   Search Dates

Add Show    List Management    Help


Phish 07/21/17
Madison Square Garden, New York, NY
Comments Add Comment    Source Collectors    Add to Collection    Add to Want List    History
Source # 139090 Other Sources
Entered by Matt Vernon
Checksums ffp , flac-md5
Disc Counts 0 / 0
Media Size
Date Circulated
Date Added

08/16/2017
Source Summary flac24 96khz Schoeps CMC6/MK4 > Sound Devices 744T (24bit/96k) > Samplitude Pro X3 Suite > FLAC/24. Section 2 Row 1 Seat 20 with the mic stand 9 feet high. Recorded and Mastered By Charlie Miller 
Source Information - Download Text | Download Zip
Phish - July 21, 2017
Madison Square Garden - New York, NY
Baker's Dozen Show - Coconut

Recording Info:
Schoeps CMC6/MK4 > Sound Devices 744T (24bit/96k) > Samplitude Pro X3 Suite > FLAC/24
(1 DVD FLAC)

Recorded and Mastered By Charlie Miller
[email protected]
August 10, 2017

Notes:
-- Section 2 Row 1 Seat 20 with the mic stand 9 feet high
-- Chris Kuroda allowed me to set up next to him in the lighting booth

Set 1:
01 - Tuning
02 - Shake Your Coconut
03 - Martian Monster
04 - Timber
05 - 555
06 - False Start (Jon Fishman)
07 - Pigtail
08 - Halfway To The Moon
09 - Reba
10 - Moonage Daydream
11 - Walls Of The Cave

Set 2:
12 - Tuning
13 - Tweezer
14 - Seven Below
15 - Billy Breathes
16 - Sparkle
17 - Everything's Right
18 - Slave To The Traffic Light
19 - Suzy Greenberg
20 - Coconut

Encore:
21 - Encore Break
22 - The Mango Song
23 - Good Times Bad Times


SHNTOOL OUTPUT:
    length     expanded size    cdr  WAVE problems  fmt   ratio  filename
     0:45.505      26210744 B   cxx   --   ---xx   flac  0.5150  01 Tuning.flac
     3:03.249     105551438 B   cxx   --   ---xx   flac  0.5877  02 Shake Your Coconuts.flac
     6:04.509     209957432 B   cxx   --   ---xx   flac  0.5720  03 Martian Monster.flac
     8:18.039     286870388 B   cxx   --   ---xx   flac  0.5549  04 Timber.flac
     7:09.261     247254476 B   cxx   --   ---xx   flac  0.5556  05 555.flac
     0:30.490      17562302 B   cxx   --   ---xx   flac  0.5576  06 False Start.flac
     7:57.880     275259122 B   cxx   --   ---xx   flac  0.5682  07 Pigtail.flac
     8:45.707     302807048 B   cxx   --   ---xx   flac  0.5684  08 Halfway To The Moon.flac
    12:52.692     445070804 B   cxx   --   ---xx   flac  0.5659  09 Reba.flac
     6:06.963     211370798 B   cxx   --   ---xx   flac  0.5882  10 Moonage Daydream.flac
    11:52.375     410328248 B   cxx   --   ---xx   flac  0.5690  11 Walls Of The Cave.flac
     0:51.213      29498522 B   cxx   --   ---xx   flac  0.4944  12 Tuning.flac
    15:45.525     544622456 B   cxx   --   ---xx   flac  0.5700  13 Tweezer.flac
    13:10.944     455583626 B   cxx   --   ---xx   flac  0.5708  14 Seven Below.flac
     5:24.806     187088540 B   cxx   --   ---xx   flac  0.5588  15 Billy Breathes.flac
     4:08.227     142978916 B   cxx   --   ---xx   flac  0.5810  16 Sparkle.flac
    11:46.885     407165798 B   cxx   --   ---xx   flac  0.5834  17 Everything's Right.flac
     9:17.587     321170282 B   cxx   --   ---xx   flac  0.5652  18 Slave To The Traffic Light.flac
     8:06.502     280225178 B   cxx   --   ---xx   flac  0.5870  19 Suzy Greenberg.flac
     2:09.463      74570882 B   cxx   --   ---xx   flac  0.6326  20 Coconut.flac
     2:48.586      97105442 B   cxx   --   ---xx   flac  0.6012  21 Encore Break.flac
     7:41.931     266072150 B   cxx   --   ---xx   flac  0.5769  22 The Mango Song.flac
     5:45.589     199059506 B   cxx   --   ---xx   flac  0.5956  23 Good Times Bad times.flac
   160:23.929    5543384098 B                            0.5726  (23 files)

Show Checksums
ffp
01 Tuning.flac:656ae91be9a66f6876a246dba38675d5
02 Shake Your Coconuts.flac:e8214893ad2aa56618d34fc781141d76
03 Martian Monster.flac:172fa2b5365747819a6387f11def8766
04 Timber.flac:811b57f23b5e3117ff5872b182699cd6
05 555.flac:9c88793ad2d0c83c7e5046505a491850
06 False Start.flac:fc5e2658d9775dfe45f60752a43523d5
07 Pigtail.flac:f697c2ae6447d286ec66bcb528a5ebfa
08 Halfway To The Moon.flac:a2743697ac5620977b2b9ae7a1bde921
09 Reba.flac:6eb1313dc653a5dc98593755109129fc
10 Moonage Daydream.flac:2de83a5c4f400a577ab87e7ace9e8a0b
11 Walls Of The Cave.flac:7b7e2ca9c6c099afb65a43592a1a2a92
12 Tuning.flac:9108cd8c64ed707db4f69c537c8fe8d9
13 Tweezer.flac:56635f349f0971e134d742b108bce4fe
14 Seven Below.flac:05864273e0e9f0eeaec2b6728854eb75
15 Billy Breathes.flac:0bf616c6ba7103fea9f33ecd304eb1d2
16 Sparkle.flac:34e6c37231ef07116f50abf8ba0e02a2
17 Everything's Right.flac:3909e229fb046cee99d2599d143467d7
18 Slave To The Traffic Light.flac:b119ff405e034c6ea9e73b1870920794
19 Suzy Greenberg.flac:fbfd269555ffda9f258b94ce30e8ce95
20 Coconut.flac:a8d889fef1642285f685ae8e9cb26e98
21 Encore Break.flac:911425e5068a6548b82cca89c45d5ba4
22 The Mango Song.flac:35534e5b53e9e65b76760b61db6a61ba
23 Good Times Bad times.flac:37fa5f81a34e2c0b8de66ed55f328f22
flac-md5
2687bbc8edde8f972c4577a04cfa8277 *01 Tuning.flac
bae2ca6c17e26d5b98fd3e2ee1658683 *02 Shake Your Coconuts.flac
56eec1db5ab2c93a17b51ef5364e2ad7 *03 Martian Monster.flac
261bd02fdf2d2f2595df781d64bc06df *04 Timber.flac
ae2bd26bf8e92dfb9c639b9684593d70 *05 555.flac
b806ec06909c68bb8b64a928377d1ff9 *06 False Start.flac
876c7276112165a13ca71191336277e2 *07 Pigtail.flac
8ec009d9ea17faf82d86443ce814a74b *08 Halfway To The Moon.flac
fc802e6147f5659e6e8c1eb8c1425ef8 *09 Reba.flac
a10b35c7432afc75c78d21403b9dceef *10 Moonage Daydream.flac
c5ddf218a24a5cf158adf923afd397ae *11 Walls Of The Cave.flac
ea6bc86848c5d2e371418f20d463c293 *12 Tuning.flac
00bffaf06d98ef889c2226d1c054104c *13 Tweezer.flac
fd9d383de38ed74af50952f309dff3c6 *14 Seven Below.flac
0710f53adab919333e8f147c3e616455 *15 Billy Breathes.flac
5fc04124c18ecbaade861b1ab8088b97 *16 Sparkle.flac
da646a78b86f3f879239aaa526898743 *17 Everything's Right.flac
4cf057162eddd420406399c9880cd5eb *18 Slave To The Traffic Light.flac
d6d293e77d2d05e8eeffd3698d7e4fe9 *19 Suzy Greenberg.flac
16625a423b642c4ce95316d5bca1b732 *20 Coconut.flac
db64337d90efefeed9d00132264dcddd *21 Encore Break.flac
4b32cc85211d56dce9c8dc2a8033904a *22 The Mango Song.flac
10707ddfbbd6125f3d9be77b30cc6513 *23 Good Times Bad times.flac

Comments
Add Comment
Other Sources (comments)
flac16 44.1khz ... (1) flac24 44.1khz ... (0) flac24 48khz ... (0) flac16 44.1khz ... (0) flac24 96khz Field:... (0) flac16 44.1khz... (0) flac16 44.1khz ... (0)
Date User Comment