Browse Collections Artists Sources   Search Dates

Add Show    List Management    Help


Phish 07/22/17
Madison Square Garden, New York, NY
Comments Add Comment    Source Collectors    Add to Collection    Add to Want List    History
Source # 139091 Other Sources
Entered by Matt Vernon
Checksums ffp , flac-md5
Disc Counts 0 / 0
Media Size
Date Circulated
Date Added

08/16/2017
Source Summary flac24 96khz Schoeps CMC6/MK4 > Sound Devices 744T (24bit/96k) > Samplitude Pro X3 Suite > FLAC/24. Section 2 Row 1 Seat 20 with the mic stand 9 feet high. Recorded and Mastered By Charlie Miller 
Source Information - Download Text | Download Zip
Phish - July 22, 2017
Madison Square Garden - New York, NY
Baker's Dozen Show 2 - Strawberry

Recording Info:
Schoeps CMC6/MK4 > Sound Devices 744T (24bit/96k) > Samplitude Pro X3 Suite > FLAC/24
(1 DVD FLAC)

Recorded and Mastered By Charlie Miller
[email protected]
August 10, 2017

Notes:
-- Section 2 Row 1 Seat 20 with the mic stand 9 feet high
-- Chris Kuroda allowed me to set up next to him in the lighting booth

Set 1:
01 - Tuning
02 - Strawberry Fields Forever
03 - Halley's Comet
04 - The Moma Dance
05 - Breath And Burning
06 - Funky Bitch
07 - Mound
08 - Foam
09 - Roggae
10 - The Squirming Coil

Set 2:
11 - Tuning
12 - Down With Disease
13 - Strawberry Letter 23
14 - Birds Of A Feather
15 - I Always Wanted It This Way
16 - All OF These Dreams
17 - Split Open And Melt
18 - Down With Disease
19 - Shine A Light

Encore:
20 - Encore Break
21 - Peaches En Regalia
22 - Cities
23 - My Sweet One


SHNTOOL OUTPUT:
    length     expanded size    cdr  WAVE problems  fmt   ratio  filename
     1:08.121      39237524 B   cxx   --   ---xx   flac  0.5932  01 Tuning.flac
     4:14.902     146823728 B   cxx   --   ---xx   flac  0.5787  02 Strawberry Fields Forever.flac
     6:23.061     220643252 B   cxx   --   ---xx   flac  0.5670  03 Halley's Comet.flac
    17:30.126     604872344 B   cxx   --   ---xx   flac  0.5729  04 The Moma Dance.flac
    10:08.080     350254064 B   cxx   --   ---xx   flac  0.5623  05 Breath And Burning.flac
     7:08.736     246952004 B   cxx   --   ---xx   flac  0.5784  06 Funky Bitch.flac
     6:18.081     217774736 B   cxx   --   ---xx   flac  0.5828  07 Mound.flac
     8:49.594     305045990 B   cxx   --   ---xx   flac  0.5627  08 Foam.flac
    10:25.176     360101354 B   cxx   --   ---xx   flac  0.5660  09 Roggae.flac
    11:19.425     391348958 B   cxx   --   ---xx   flac  0.5573  10 The Squirming Coil.flac
     0:59.360      34191458 B   cxx   --   ---xx   flac  0.5041  11 Tuning.flac
    18:50.928     651414284 B   cxx   --   ---xx   flac  0.5731  12 Down With Disease.flac
     5:20.185     184426574 B   cxx   --   ---xx   flac  0.5730  13 Strawberry Letter 23.flac
     6:30.309     224818040 B   cxx   --   ---xx   flac  0.5737  14 Birds Of A Feather.flac
     9:58.829     344925752 B   cxx   --   ---xx   flac  0.5869  15 I Always Wanted It This Way.flac
     4:14.095     146358566 B   cxx   --   ---xx   flac  0.5503  16 All Of These Dreams.flac
    11:16.919     389905130 B   cxx   --   ---xx   flac  0.5775  17 Split Open And Melt.flac
     7:01.659     242875574 B   cxx   --   ---xx   flac  0.5883  18 Down With Disease.flac
     4:21.236     150472112 B   cxx   --   ---xx   flac  0.5714  19 Shine A Light.flac
     3:08.975     108849482 B   cxx   --   ---xx   flac  0.5405  20 Encore Break.flac
     3:28.726     120226160 B   cxx   --   ---xx   flac  0.5790  21 Peaches En Regalia.flac
     4:44.557     163904702 B   cxx   --   ---xx   flac  0.5802  22 Cities.flac
     4:00.782     138690614 B   cxx   --   ---xx   flac  0.5883  23 My Sweet One.flac
   167:21.860    5784112402 B                            0.5718  (23 files)

Show Checksums
ffp
01 Tuning.flac:520e6c20589262d53b5ea8cc1f7c99af
02 Strawberry Fields Forever.flac:c327ef7b6e8c1689c972e93b58877307
03 Halley's Comet.flac:5a3e8a268041cb08fec7c1c33b00b176
04 The Moma Dance.flac:96e8484fe010414ed5999daba914516d
05 Breath And Burning.flac:0710d902c565dab9b668bbaa5e2d8503
06 Funky Bitch.flac:06110f0375f3a61ee8ff4968fdb0ac5c
07 Mound.flac:fbecf402edfbb9e2661a867c4d5434bd
08 Foam.flac:c0b47f91f862f296d5618cdc059c3128
09 Roggae.flac:f1e7a386f291a1e73182257509be93a0
10 The Squirming Coil.flac:87a94f57c24d0123b8df583f06b5954b
11 Tuning.flac:988146722e7ed5fadcf5d547a84734a1
12 Down With Disease.flac:da0d160fca0818aa477ab707a4566b1d
13 Strawberry Letter 23.flac:9d7c0b5b1d65a1c7e6bf5e580270c896
14 Birds Of A Feather.flac:182e61f58aa4b7b25fdb961bc2135393
15 I Always Wanted It This Way.flac:5fe9ca0814d0392f17f8d31e65a57616
16 All Of These Dreams.flac:ab1a96a107a0914347a25ee21746d2b8
17 Split Open And Melt.flac:5418af11c8030ba36eeb9c6ebb2f9464
18 Down With Disease.flac:65f6dbaf1fb3fcbb428dc82e3628eb8a
19 Shine A Light.flac:f803aa2fde5cbb14dc7516f01048539e
20 Encore Break.flac:5cc096a42ac855dbf1d3293473d4eac7
21 Peaches En Regalia.flac:a9a70db6d2cf406d2f3edbdc9b10183a
22 Cities.flac:d7897c313de19790d2cdf62175cf41ac
23 My Sweet One.flac:637527c4d31b349bb0f89bc865604bb5
flac-md5
b985e15a223a772cd77bcec366c0189f *01 Tuning.flac
e84af07b3b8005a9fadfc01271edd9b7 *02 Strawberry Fields Forever.flac
7ff4d48931c25f97d017ea3f7ac5ac40 *03 Halley's Comet.flac
66d86071e833071c7c0d5c1abe990eee *04 The Moma Dance.flac
53a2a32b68b572c1e92d61b8a277f374 *05 Breath And Burning.flac
a104e0bcaf83b2f1eda7555b9508bad4 *06 Funky Bitch.flac
0e6cc96891eb9c1e6baeb7efaf4d7603 *07 Mound.flac
ddbc5688a6889c3d9904f811ac198556 *08 Foam.flac
b5ddbe20a9467deaf140d478e021b190 *09 Roggae.flac
0efc8f907c5cd46f4b986812f5a72e35 *10 The Squirming Coil.flac
851016e374ce9a802e432f6ad7f5727d *11 Tuning.flac
589b4e6aee3f16f6ea3d844cda58d3de *12 Down With Disease.flac
6288f9df0ffac45ef758cfebeec1c999 *13 Strawberry Letter 23.flac
93f65075e6971a1859ea175fa9df1ae9 *14 Birds Of A Feather.flac
dce9e57d89ca9affb1e47a200801c132 *15 I Always Wanted It This Way.flac
fba9e87adfc635868dd3fe3037347901 *16 All Of These Dreams.flac
e9de9c7c652ac21bd84cfa68511fb312 *17 Split Open And Melt.flac
f7b92bed4ac8a3531b20a8df2c2bd5e0 *18 Down With Disease.flac
eb706b8fb37ae157ac2ada3645b01d93 *19 Shine A Light.flac
d330494306a5b389e04e0c618303f544 *20 Encore Break.flac
aef9727fbe7e328be06aa4ebe0de9f80 *21 Peaches En Regalia.flac
55e12c83e4b7dce416b6f2d476de1c06 *22 Cities.flac
4262b5c66c5687274a485a3d9d552126 *23 My Sweet One.flac

Comments
Add Comment
Other Sources (comments)
flac16 44.1khz... (0) flac24 48khz ... (0) flac16 44.1khz DPA... (0) flac24 96khz DPA... (0) flac16 44.1khz ... (1) flac24 96khz ... (0) flac16 44.1khz ... (0)
Date User Comment