Browse Collections Artists Sources   Search Dates

Add Show    List Management    Help


Phish 07/23/17
Madison Square Garden, New York, NY
Comments Add Comment    Source Collectors    Add to Collection    Add to Want List    History
Source # 139092 Other Sources
Entered by Matt Vernon
Checksums ffp , flac-md5
Disc Counts 0 / 0
Media Size
Date Circulated
Date Added

08/16/2017
Source Summary flac24 96khz Schoeps CMC6/MK4 > Sound Devices 744T (24bit/96k) > Samplitude Pro X3 Suite > FLAC/24. Section 2 Row 1 Seat 20 with the mic stand 9 feet high. Recorded and Mastered By Charlie Miller 
Source Information - Download Text | Download Zip
Phish - July 23, 2017
Madison Square Garden - New York, NY
Baker's Dozen Show 3 - Red Velvet

Recording Info:
Schoeps CMC6/MK4 > Sound Devices 744T (24bit/96k) > Samplitude Pro X3 Suite > FLAC/24
(1 DVD FLAC)

Recorded and Mastered By Charlie Miller
[email protected]
August 12, 2017

Notes:
-- Section 2 Row 1 Seat 20 with the mic stand 9 feet high
-- Chris Kuroda allowed me to set up next to him in the lighting booth

Set 1:
01 - Tuning
02 - Sunday Morning
03 - Axilla I
04 - Your Pet Cat
05 - Back On The Train
06 - How Many People Are You?
07 - Glide
08 - Theme From The Bottom
09 - It's Ice
10 - More

Set 2:
11 - Tuning
12 - AC/DC Bag
13 - Wolfman's Brother
14 - Twist
15 - Waves
16 - Miss You
17 - Boogie On Reggae Woman
18 - Wading In The Velvet Sea

Encore:
19 - Encore Break
20 - Sweet Jane


SHNTOOL OUTPUT:
    length     expanded size    cdr  WAVE problems  fmt   ratio  filename
     1:23.668      48192704 B   cxx   --   ---xx   flac  0.5746  01 Tuning.flac
     5:26.774     188221598 B   cxx   --   ---xx   flac  0.5660  02 Sunday Morning.flac
     3:26.550     118972874 B   cxx   --   ---xx   flac  0.5801  03 Axilla I.flac
     5:32.182     191337152 B   cxx   --   ---xx   flac  0.5727  04 Your Pet Cat.flac
    10:59.791     380039672 B   cxx   --   ---xx   flac  0.5608  05 Back On The Train.flac
     9:20.492     322843640 B   cxx   --   ---xx   flac  0.5674  06 How Many People Are You.flac
     4:43.048     163035602 B   cxx   --   ---xx   flac  0.5593  07 Glide.flac
     9:25.754     325874414 B   cxx   --   ---xx   flac  0.5626  08 Theme From The Bottom.flac
    15:10.079     524205740 B   cxx   --   ---xx   flac  0.5560  09 It's Ice.flac
     7:47.617     269347670 B   cxx   --   ---xx   flac  0.5611  10 More.flac
     0:52.095      30006908 B   cxx   --   ---xx   flac  0.4775  11 Tuning.flac
     7:30.094     259254128 B   cxx   --   ---xx   flac  0.5563  12 AC DC Bag.flac
    14:53.966     514924622 B   cxx   --   ---xx   flac  0.5434  13 Wolfman's Brother.flac
    16:02.221     554239550 B   cxx   --   ---xx   flac  0.5568  14 Twist.flac
    11:10.691     386318114 B   cxx   --   ---xx   flac  0.5517  15 Waves.flac
     7:37.400     263462660 B   cxx   --   ---xx   flac  0.5398  16 Miss You.flac
     7:50.413     270957740 B   cxx   --   ---xx   flac  0.5705  17 Boogie On Reggae Woman.flac
     7:39.153     264472178 B   cxx   --   ---xx   flac  0.5534  18 Wading In The Velvet Sea.flac
     2:46.028      95632370 B   cxx   --   ---xx   flac  0.5003  19 Encore Break.flac
     5:56.255     205203086 B   cxx   --   ---xx   flac  0.5761  20 Sweet Jane.flac
   155:34.274    5376542422 B                            0.5572  (20 files)

Show Checksums
ffp
01 Tuning.flac:c3c825877240fc3fa9335087cf73d1e5
02 Sunday Morning.flac:6c538353a1bf3cd15af00f19f8c1429c
03 Axilla I.flac:33680163483fe9bcebce1459351ffa4d
04 Your Pet Cat.flac:739eeeb4a3f376b0557e885611f482b1
05 Back On The Train.flac:052cb1e814caa6bb24709d1b06b027dd
06 How Many People Are You.flac:5ff5515bb12df10e49d376733277ac99
07 Glide.flac:2fcfe29baabebe7e42d28d4bee6c2161
08 Theme From The Bottom.flac:d260e17e2ad3c20d9b0dc0ab28f6e818
09 It's Ice.flac:0bd25367d02e8e55a53e0029b0e98476
10 More.flac:6430e0e1cb2fe4dc55d43c2689ed8b7e
11 Tuning.flac:50b8ff6d97e069cb48e2bac7e80ff7c1
12 AC DC Bag.flac:f665baca25adebbf3bbf845b20b380b9
13 Wolfman's Brother.flac:00942e2276df64932c99c21b3ea298f6
14 Twist.flac:f13a16fa73c2e7fbc4473d60ef09c11b
15 Waves.flac:9b195fb3fc4ac1cb109dfb4043d7bed8
16 Miss You.flac:8debc3f9cb8d11fea1fff4645a3df8b5
17 Boogie On Reggae Woman.flac:7f6741aa9309932673b57b7b4b7fbf9b
18 Wading In The Velvet Sea.flac:d2ad4b8ccd31d50b982db81c3260032f
19 Encore Break.flac:8371010f706144e483135059e42ffa1f
20 Sweet Jane.flac:7dd737cbbe5ce0af6dc42223d5267e1d
flac-md5
111a3f148d2883f181d765c400e02275 *01 Tuning.flac
e2e95290ca530f3c0f2702fdc27efc8e *02 Sunday Morning.flac
db9ad50dc9d180005afbb950d9bc8c59 *03 Axilla I.flac
cda6f81f9a8aff7b21bce3488a94e7c4 *04 Your Pet Cat.flac
4e3c3901d565df3e49f7efa8fd8c639d *05 Back On The Train.flac
1e09c6f7d8c56e925f4cc36d9188986e *06 How Many People Are You.flac
e490520dbdb93c0aa198e49e036adece *07 Glide.flac
75c58e979d2ab7bff8fc6487b8849733 *08 Theme From The Bottom.flac
492c6b467553bb893302299da456ede8 *09 It's Ice.flac
bbcd9e21e9ef9a9746600e1b6c1435ad *10 More.flac
f5f8eaebbc61ea24694d8eea294cbb1e *11 Tuning.flac
2424b10770fd58b3ea1ce197559b75f7 *12 AC DC Bag.flac
c1eceb8ba12664520e861a75cb3d5ebd *13 Wolfman's Brother.flac
42c15173fd2df18b9b6d5702092e1584 *14 Twist.flac
34821c73cdef4bc7dbbbf5ed3cbafef9 *15 Waves.flac
4fdbe9c1b37b8b1ccace4fb0fc69ca11 *16 Miss You.flac
35165df80e2a793b02f194e5da2e8233 *17 Boogie On Reggae Woman.flac
d1c5b13158f07e740ed1fdcff8e833eb *18 Wading In The Velvet Sea.flac
08b12a7780aa788a52aee4413dc73bce *19 Encore Break.flac
d1c43b239601de06361b9d5b1b6bd1d8 *20 Sweet Jane.flac

Comments
Add Comment
Other Sources (comments)
flac16 44.1khz ... (0) flac16 44.1khz ... (0) flac24 48khz ... (0) flac24 48khz ... (0) flac16 44.1khz ... (0) flac16 44.1khz ... (0) flac24 48khz... (0) flac24 48khz... (0) flac24 48khz... (0) flac16 44.1khz ... (0) flac24 96khz... (0) flac16 48khz Field:... (0) flac16 44.1khz... (0) flac16 44.1khz ... (1)
Date User Comment