Browse Collections Artists Sources   Search Dates

Add Show    List Management    Help


Phish 07/25/17
Madison Square Garden, New York, NY
Comments Add Comment    Source Collectors    Add to Collection    Add to Want List    History
Source # 139093 Other Sources
Entered by Matt Vernon
Checksums ffp , flac-md5
Disc Counts 0 / 0
Media Size
Date Circulated
Date Added

08/16/2017
Source Summary flac24 96khz Schoeps CMC6/MK4 > Sound Devices 744T (24bit/96k) > Samplitude Pro X3 Suite > FLAC/24. Section 2 Row 1 Seat 20 with the mic stand 9 feet high. Recorded and Mastered By Charlie Miller 
Source Information - Download Text | Download Zip
Phish - July 25, 2017
Madison Square Garden - New York, NY
Baker's Dozen Show 4 - Jam Filled

Recording Info:
Schoeps CMC6/MK4 > Sound Devices 744T (24bit/96k) > Samplitude Pro X3 Suite > FLAC/24
(1 DVD FLAC)

Recorded and Mastered By Charlie Miller
[email protected]
August 12, 2017

Notes:
-- Section 2 Row 1 Seat 20 with the mic stand 9 feet high
-- Chris Kuroda allowed me to set up next to him in the lighting booth

Set 1:
01 - Tuning
02 - Sample In A Jar
03 - Lawn Boy
04 - My Friend My Friend
05 - Stash
06 - Bathtub Gin

Set 2:
07 - Tuning
08 - Fuego
09 - Thread
10 - Crosseyed And Painless
11 - Makisupa Policeman
12 - End Of Session
13 - Tuesday
14 - Cavern

Encore:
15 - Encore Break
16 - Julius
17 - Lawn Boy


SHNTOOL OUTPUT:
    length     expanded size    cdr  WAVE problems  fmt   ratio  filename
     0:43.858      25262378 B   cxx   --   ---xx   flac  0.5374  01 Tuning.flac
     9:53.435     341818514 B   cxx   --   ---xx   flac  0.6222  02 Sample In A Jar.flac
    30:00.668    1037184548 B   cxx   --   ---xx   flac  0.6174  03 Lawn Boy.flac
    11:37.744     401900474 B   cxx   --   ---xx   flac  0.6028  04 My Friend My Friend.flac
    11:22.392     393057950 B   cxx   --   ---xx   flac  0.6105  05 Stash.flac
    13:23.906     463049912 B   cxx   --   ---xx   flac  0.6165  06 Bathtub Gin.flac
     1:06.941      38558282 B   cxx   --   ---xx   flac  0.4832  07 Tuning.flac
    19:00.435     656890550 B   cxx   --   ---xx   flac  0.6145  08 Fuego.flac
     6:47.387     234654860 B   cxx   --   ---xx   flac  0.6143  09 Thread.flac
    33:06.532    1144242530 B   cxx   --   ---xx   flac  0.6048  10 Crosseyed And Painless.flac
     4:09.800     143884922 B   cxx   --   ---xx   flac  0.5976  11 Makisupa Policeman.flac
     3:35.516     124137392 B   cxx   --   ---xx   flac  0.5828  12 End Of Session.flac
     7:00.575     242251490 B   cxx   --   ---xx   flac  0.6373  13 Tuesday.flac
     4:49.420     166705808 B   cxx   --   ---xx   flac  0.6278  14 Cavern.flac
     2:13.326      76796030 B   cxx   --   ---xx   flac  0.5236  15 Encore Break.flac
     8:54.751     308016896 B   cxx   --   ---xx   flac  0.6191  16 Julius.flac
     1:59.112      68608820 B   cxx   --   ---xx   flac  0.5654  17 Lawn Boy.flac
   169:45.800    5867021356 B                            0.6102  (17 files)

Show Checksums
ffp
01 Tuning.flac:8cd5ef26ed8896b32041cf14cd5722ca
02 Sample In A Jar.flac:7e4f9ad08ec487674a7b978266050821
03 Lawn Boy.flac:9d40ebc2acb271627fcd20ca6a688a6d
04 My Friend My Friend.flac:ca6c1c6fdafbe322ef1a466464f69a3f
05 Stash.flac:90235b69478e47f538a039dd9806f62c
06 Bathtub Gin.flac:6e26290553e29c1fae5a77f4d40cd5e9
07 Tuning.flac:b704c1aeb6274fad46bedc1ca541fa29
08 Fuego.flac:0371b52d36915a13ecf28d2af979567a
09 Thread.flac:d424c2b00dbc446117c75388d4e02b96
10 Crosseyed And Painless.flac:b007f38b8754166f471c8d9fb823520d
11 Makisupa Policeman.flac:526f623abf3cf0281c0a5496c8b0e274
12 End Of Session.flac:213d350847097d164c5ad4a784665629
13 Tuesday.flac:ef3667b6a0fbd3e2f3492424a16f527a
14 Cavern.flac:6cdf5e6ebd65a39fd0c4bbc9ab30df54
15 Encore Break.flac:ba676dacf49e750041bf27cd5e0136d6
16 Julius.flac:8be855ddc4be5b8149eb97071428acc2
17 Lawn Boy.flac:ca4082f4a5768ccdcd065aaf47899e9e
flac-md5
b27e7c2106100963511f157e30cdbdd9 *01 Tuning.flac
41c3076795e61aaf1cf9620ee1224823 *02 Sample In A Jar.flac
3f802e28616d3e5af4e893f475b95705 *03 Lawn Boy.flac
00ab69b0328c2347d57262162662ed4f *04 My Friend My Friend.flac
1a67dc37981ac5d8e3dad28d8589b369 *05 Stash.flac
4327e7cfa4bfc9c55b49ea354753ffe9 *06 Bathtub Gin.flac
94346ab3c5bba5e89da77612737f6f26 *07 Tuning.flac
18c2c291feee6f15bdcdfe693fa0791a *08 Fuego.flac
b5f0fcbe92a6a263f072cfdc34fd5bbf *09 Thread.flac
8841df830e6f56b6d4968340f5d6475d *10 Crosseyed And Painless.flac
13d90b4dcbfb32995935586e528f31de *11 Makisupa Policeman.flac
7535e17956270bccc8e289712634ecbe *12 End Of Session.flac
e5a808bd51b046ce575493c67797c747 *13 Tuesday.flac
8c3c78368bf82e3a1e635a461a06e452 *14 Cavern.flac
3703683032ca96be29dac6e18dab1304 *15 Encore Break.flac
d5523266f600094af165d0849cf653ff *16 Julius.flac
8f9c5c93464a8161456f961b2da0ac60 *17 Lawn Boy.flac

Comments
Add Comment
Other Sources (comments)
flac16 44.1khz ... (2) flac24 48khz ... (0) flac24 48khz ... (0) flac16 44.1khz... (0) flac16 44.1khz ... (0) flac24 48khz ... (0) flac24 96khz ... (0) flac16 48khz ... (0) flac16 44.1khz ... (0)
Date User Comment