Browse Collections Artists Sources   Search Dates

Add Show    List Management    Help


Phish 07/28/17
Madison Square Garden, New York, NY
Comments Add Comment    Source Collectors    Add to Collection    Add to Want List    History
Source # 139095 Other Sources
Entered by Matt Vernon
Checksums ffp , flac-md5
Disc Counts 0 / 0
Media Size
Date Circulated
Date Added

08/16/2017
Source Summary flac24 96khz Schoeps CMC6/MK4 > Sound Devices 744T (24bit/96k) > Samplitude Pro X3 Suite > FLAC/24. Section 2 Row 1 Seat 20 with the mic stand 9 feet high. Recorded and Mastered By Charlie Miller 
Source Information - Download Text | Download Zip
Phish - July 28, 2017
Madison Square Garden - New York, NY
Baker's Dozen Show 6 - Double Chocolate

Recording Info:
Schoeps CMC6/MK4 > Sound Devices 744T (24bit/96k) > Samplitude Pro X3 Suite > FLAC/24
(1 DVD FLAC)

Recorded and Mastered By Charlie Miller
[email protected]
August 13, 2017

Notes:
-- Section 2 Row 1 Seat 20 with the mic stand 9 feet high
-- Chris Kuroda allowed me to set up next to him in the lighting booth

Set 1:
01 - Tuning
02 - Chocolate Rain
03 - Ass Handed
04 - Free
05 - Weigh
06 - Undermind
07 - Oh Kee Pa Ceremony
08 - The Dogs
09 - Destiny Unbound
10 - Divided Sky
11 - Things People Do
12 - Sand

Set 2:
13 - Tuning
14 - Have Mercy
15 - Chalkdust Torture
16 - You Sexy Thing
17 - Mercury
18 - Backwards Down The Number Line
19 - Rock And Roll

Encore:
20 - Encore Break
21 - Fee
22 - Space Oddity


SHNTOOL OUTPUT:
    length     expanded size    cdr  WAVE problems  fmt   ratio  filename
     1:04.455      37126358 B   cxx   --   ---xx   flac  0.5178  01 Tuning.flac
     2:52.814      99540758 B   cxx   --   ---xx   flac  0.5101  02 Chocolate Rain.flac
     1:08.034      39187862 B   cxx   --   ---xx   flac  0.5454  03 Ass Handed.flac
    11:12.103     387131360 B   cxx   --   ---xx   flac  0.5585  04 Free.flac
     5:22.085     185520734 B   cxx   --   ---xx   flac  0.5539  05 Weigh.flac
     8:52.329     306621656 B   cxx   --   ---xx   flac  0.5556  06 Undermind.flac
     1:58.578      68300792 B   cxx   --   ---xx   flac  0.5316  07 Oh Kee Pa Ceremony.flac
     5:47.582     200207342 B   cxx   --   ---xx   flac  0.5727  08 The Dogs.flac
     7:48.505     269859104 B   cxx   --   ---xx   flac  0.5624  09 Destiny Unbound.flac
    17:00.432     587769152 B   cxx   --   ---xx   flac  0.5445  10 Divided Sky.flac
     4:21.245     150476990 B   cxx   --   ---xx   flac  0.5492  11 Things People Do.flac
    12:02.507     416164052 B   cxx   --   ---xx   flac  0.5713  12 Sand.flac
     1:43.653      59704352 B   cxx   --   ---xx   flac  0.5007  13 Tuning.flac
     5:47.626     200232374 B   cxx   --   ---xx   flac  0.5433  14 Have Mercy.flac
    24:22.724     842529092 B   cxx   --   ---xx   flac  0.5588  15 Chalkdust Torture.flac
    10:52.471     375823382 B   cxx   --   ---xx   flac  0.5444  16 You Sexy Thing.flac
    16:24.210     566905118 B   cxx   --   ---xx   flac  0.5497  17 Mercury.flac
     9:34.139     330704072 B   cxx   --   ---xx   flac  0.5660  18 Backwards Down The Number Line.flac
     6:47.155     234521510 B   cxx   --   ---xx   flac  0.5897  19 Rock And Roll.flac
     4:20.821     150233120 B   cxx   --   ---xx   flac  0.5160  20 Encore Break.flac
     6:54.492     238747286 B   cxx   --   ---xx   flac  0.5471  21 Fee.flac
     5:33.585     192144734 B   cxx   --   ---xx   flac  0.5466  22 Space Oddity.flac
   171:51.546    5939451200 B                            0.5536  (22 files)

Show Checksums
ffp
01 Tuning.flac:cd338425c02b986c39cd64de97ea890d
02 Chocolate Rain.flac:12c8c978bbae12e71973d87db286125a
03 Ass Handed.flac:a9a1820938ae58b80643ce81ea0130db
04 Free.flac:6a616bdf95c06e3a0ac85b78ef17b792
05 Weigh.flac:9c7c0d4753d4131ed2fcd367579588eb
06 Undermind.flac:e6d1635a1a566bbf029d24207e1ff170
07 Oh Kee Pa Ceremony.flac:3aba60331e0505e18db692e497f0f336
08 The Dogs.flac:278aa8cf84a2667cb8cff40edfeef730
09 Destiny Unbound.flac:c766797d54b1200595b4c6e61f9e995a
10 Divided Sky.flac:4d33cfb0eea0f440133f90fc7cccaebb
11 Things People Do.flac:5fa0c23c5b79016b6ffc4ec8ef0bf25d
12 Sand.flac:00f8b99e14186f0bdf1d749e5bf86794
13 Tuning.flac:cca06704987e6c0b7375d566eed96fc5
14 Have Mercy.flac:3f838cc97f0aba130f441cb0902cefc1
15 Chalkdust Torture.flac:9d31aab3885386f5181d9133be6f1e9b
16 You Sexy Thing.flac:392dc96cd188c107d3aba44710bf4a8f
17 Mercury.flac:cb11a993eb1f53b8aec3698765a7126f
18 Backwards Down The Number Line.flac:35133a7aa87e19cee0260f1b0d3bd0fb
19 Rock And Roll.flac:e5bcd1cd685e398592737cfcfdf7a699
20 Encore Break.flac:bedf900b45c3e98da3cda84bff3ecd77
21 Fee.flac:734d2d58317d3943ccab6e2848f71601
22 Space Oddity.flac:56951ef9610a9cc0621e1de970ce276d
flac-md5
767d83ad20be21fde52f2cbe73d6c125 *01 Tuning.flac
ddbdc28f1e82c8fb995e1b9166476879 *02 Chocolate Rain.flac
4b6f29e69f7ffef1ffdc28da3059c091 *03 Ass Handed.flac
7adcf0865c233a4b329edeea9003161f *04 Free.flac
562af4f7b2b417e2165141c0f74da17f *05 Weigh.flac
4230a22dadd9468dfa0ceb6839a1c7ec *06 Undermind.flac
ad5adc694de32fe326107c99a7760884 *07 Oh Kee Pa Ceremony.flac
59ce7a77f0d4f6a3b7a1914b1579aa46 *08 The Dogs.flac
5ce7e14593211672895111a4cfe73d5d *09 Destiny Unbound.flac
5fce7578c7aad062db53b7c59e927a5b *10 Divided Sky.flac
19cba353dc528b84eb308fd418e82af1 *11 Things People Do.flac
176e36aeba96a458d35150040eb71dd3 *12 Sand.flac
54cd0a3ea74cbdea863531308fda2966 *13 Tuning.flac
26a2d137a49af154e9dfe9d1279441da *14 Have Mercy.flac
0967b693f1ccd7a59003bf46accef257 *15 Chalkdust Torture.flac
1a3d7e339594632b28216329f5530c5e *16 You Sexy Thing.flac
410c0eb3fc0d81cf8c756f7b2bf58168 *17 Mercury.flac
ef67afdf73aa1c0d27e800816df16382 *18 Backwards Down The Number Line.flac
d993972488d4ee5a85da5647defbcb64 *19 Rock And Roll.flac
f33d4da0b65d325cba8d0904d67e9eac *20 Encore Break.flac
b9cdea56b63cbf995b3ee121c55528aa *21 Fee.flac
fcc148f415118e23aac607bcccbe7cd5 *22 Space Oddity.flac

Comments
Add Comment
Other Sources (comments)
flac16 44.1khz ... (0) flac24 48khz ... (0) flac16 44.1khz ... (0) flac24 48khz ... (0) flac16 44.1khz AKG... (1) flac24 48khz AKG... (1) flac16 48khz ... (0) flac24 96khz Field:... (0) flac24 48khz... (1) flac24 48khz ... (1) flac24 96khz ... (0) flac16 44.1khz ... (0) flac16 44.1khz ... (0) flac24 96khz ... (0) flac16 44.1khz ... (0) flac16 44.1khz... (0)
Date User Comment