Browse Collections Artists Sources   Search Dates

Add Show    List Management    Help


Phish 07/29/17
Madison Square Garden, New York, NY
Comments Add Comment    Source Collectors    Add to Collection    Add to Want List    History
Source # 139096 Other Sources
Entered by Matt Vernon
Checksums ffp , flac-md5
Disc Counts 0 / 0
Media Size
Date Circulated
Date Added

08/16/2017
Source Summary flac24 96khz Schoeps CMC6/MK4 > Sound Devices 744T (24bit/96k) > Samplitude Pro X3 Suite > FLAC/24. Section 2 Row 1 Seat 20 with the mic stand 9 feet high. Recorded and Mastered By Charlie Miller 
Source Information - Download Text | Download Zip
Phish - July 29, 2017
Madison Square Garden - New York, NY
Baker's Dozen Show 7 - Cinnamon

Recording Info:
Schoeps CMC6/MK4 > Sound Devices 744T (24bit/96k) > Samplitude Pro X3 Suite > FLAC/24
(1 DVD FLAC)

Recorded and Mastered By Charlie Miller
[email protected]
August 13, 2017

Notes:
-- Section 2 Row 1 Seat 20 with the mic stand 9 feet high
-- Chris Kuroda allowed me to set up next to him in the lighting booth

Set 1:
01 - Tuning
02 - Llama
03 - Wilson
04 - Stealing Time From The Faulty Line
05 - Ya Mar
06 - Tela
07 - The Birds
08 - The Line
09 - Water In The Sky
10 - Vultures
11 - Train Song
12 - Horn
13 - I Am The Walrus

Set 2:
14 - Tuning
15 - Blaze On
16 - Twenty Years Later
17 - Alumni Blues
18 - Letter To Jimmy Page
19 - Alumni Blues
20 - Meatsick
21 - Dirt
22 - Harry Hood

Encore:
23 - Encore Break
24 - Cinnamon Girl


SHNTOOL OUTPUT:
    length     expanded size    cdr  WAVE problems  fmt   ratio  filename
     1:14.431      42872504 B   cxx   --   ---xx   flac  0.5038  01 Tuning.flac
     4:33.474     157521254 B   cxx   --   ---xx   flac  0.5779  02 Llama.flac
     9:11.528     317680064 B   cxx   --   ---xx   flac  0.5496  03 Wilson.flac
     8:26.756     291891278 B   cxx   --   ---xx   flac  0.5632  04 Stealing Time From The Faulty Line.flac
     9:46.527     337839632 B   cxx   --   ---xx   flac  0.5576  05 Ya Mar.flac
     7:21.204     254133692 B   cxx   --   ---xx   flac  0.5456  06 Tela.flac
     4:20.416     149999906 B   cxx   --   ---xx   flac  0.5565  07 The Birds.flac
     7:12.025     248846624 B   cxx   --   ---xx   flac  0.5624  08 The Line.flac
     4:47.833     165792008 B   cxx   --   ---xx   flac  0.5580  09 Water In The Sky.flac
     7:32.396     260579918 B   cxx   --   ---xx   flac  0.5445  10 Vultures.flac
     2:52.070      99112430 B   cxx   --   ---xx   flac  0.5146  11 Train Song.flac
     3:54.369     134996396 B   cxx   --   ---xx   flac  0.5504  12 Horn.flac
     7:26.280     257057138 B   cxx   --   ---xx   flac  0.5664  13 I Am The Walrus.flac
     0:59.384      34205282 B   cxx   --   ---xx   flac  0.4815  14 Tuning.flac
    23:16.148     804181472 B   cxx   --   ---xx   flac  0.5524  15 Blaze On.flac
    11:09.405     385577360 B   cxx   --   ---xx   flac  0.5562  16 Twenty Years Later.flac
     3:32.362     122320490 B   cxx   --   ---xx   flac  0.5481  17 Alumni Blues.flac
     1:16.863      44272856 B   cxx   --   ---xx   flac  0.5537  18 Letter To Jimmy Page.flac
     3:12.990     111162416 B   cxx   --   ---xx   flac  0.5462  19 Alumni Blues.flac
     9:58.276     344607110 B   cxx   --   ---xx   flac  0.5495  20 Meatstick.flac
     4:33.385     157469606 B   cxx   --   ---xx   flac  0.5311  21 Dirt.flac
    16:03.626     555048854 B   cxx   --   ---xx   flac  0.5517  22 Harry Hood.flac
     4:06.641     142065152 B   cxx   --   ---xx   flac  0.5072  23 Encore Break.flac
     5:07.760     177269684 B   cxx   --   ---xx   flac  0.5762  24 Cinnamon Girl.flac
   161:56.149    5596503126 B                            0.5518  (24 files)

Show Checksums
ffp
01 Tuning.flac:271aa0dab5457b844dc50a57fdbdd89c
02 Llama.flac:3a42da868ceddc6bb5c5e2ae7fd6c1fb
03 Wilson.flac:e2913dd18ede7a5d338c1ea0a325703b
04 Stealing Time From The Faulty Line.flac:6aa4c3455a1d173dd5bccb0c2a268169
05 Ya Mar.flac:46dea2abe44e6cd548a8ad85310ecf12
06 Tela.flac:eb323a24c32bb36404e2c4a471284a32
07 The Birds.flac:59579c881840f577bbfed3726af32b0f
08 The Line.flac:d453aa5b9905862f3519408253a406e8
09 Water In The Sky.flac:c9ef0ffb4abc768127f6be83a2a0261e
10 Vultures.flac:719d623c0f66ca4a094501b974d134db
11 Train Song.flac:5a636526c29900b54add8475db3f6221
12 Horn.flac:422e156c89b6e2dc8f358660ea8bd7ce
13 I Am The Walrus.flac:ead76233cdfd46052a62b9618e6c859e
14 Tuning.flac:c80e20b3949e48c5b0db60a77eb8b6bb
15 Blaze On.flac:a7d63b5554c0a63e4c18ab46e8300247
16 Twenty Years Later.flac:c9407cdb14026ee4786b97e64810b8d3
17 Alumni Blues.flac:b7a90b0a356a0ad611e67303a685fa99
18 Letter To Jimmy Page.flac:8706c205935d45c469b1f40ec36107a8
19 Alumni Blues.flac:4cc01f89b53c7577e293e54bf695cd48
20 Meatstick.flac:cc1abd823245d813451484a814755167
21 Dirt.flac:c792289b71415ddd733358a87168d3e9
22 Harry Hood.flac:20a3950974aaceebc95f66cdf1c5e043
23 Encore Break.flac:83404969952df8a92346f784b6ac4467
24 Cinnamon Girl.flac:9f4aebdc726add241e4069bea592d8d5
flac-md5
e2a3603f112968c418cd4c0c9b11678b *01 Tuning.flac
febd756e77054be05ed2a9664e2251f9 *02 Llama.flac
1812ba8f6a045d86a259c8578c7efef8 *03 Wilson.flac
c4d8a9ac2f54b745fb8d4ede94a06793 *04 Stealing Time From The Faulty Line.flac
1876c0c64eb4d48e2cfa48004dbaa9f8 *05 Ya Mar.flac
588c63002584381f7fee0b0d0b04a770 *06 Tela.flac
3b5325017c85c70fd452cadc65b77d0c *07 The Birds.flac
1addafbd10a0cefb034ee4f59e0801de *08 The Line.flac
74c8aa9900c3ac78e17e5e13666fe7c5 *09 Water In The Sky.flac
8ff56d577964ff695a1c30e05105f75b *10 Vultures.flac
3bdb6d28c5a1d005ec8ed5d9c1694f5a *11 Train Song.flac
3166cefe3d0897b2fa0d17757ade238e *12 Horn.flac
c07b98f9b4bc4e8c2b4c03d8976d5239 *13 I Am The Walrus.flac
0ae174b447f4d2f8d486ab47856541ad *14 Tuning.flac
ccf997a5e24189b7d6fbeac3ef86d6cb *15 Blaze On.flac
b6f1e96b2ec8fbad129fb6284c03280d *16 Twenty Years Later.flac
93b651e6a254f0d7bf81d624303f9e5a *17 Alumni Blues.flac
f8c174ff36a87bf8dedf3af7b4a621b9 *18 Letter To Jimmy Page.flac
9702d35618fd63cb7e49b718d778f3ac *19 Alumni Blues.flac
34d0defa203efc3223561ac0136daf87 *20 Meatstick.flac
99b7228f179ca814e722550985036f9c *21 Dirt.flac
ce5e39c60c0c2525dc3e4e3a549cc2a2 *22 Harry Hood.flac
848c0d232cb94a57fc783fc4f6d2e2f8 *23 Encore Break.flac
a948f665d7e5c7dc3666aca8b482b4e3 *24 Cinnamon Girl.flac

Comments
Add Comment
Other Sources (comments)
flac16 44.1khz ... (0) flac24 48khz ... (0) flac24 48khz ... (1) flac16 44.1khz ... (1) flac16 44.1khz... (0) flac16 48khz ... (0) flac24 96khz ... (0) flac24 48khz ... (0) flac16 44.1khz ... (0) flac24 96khz ... (0) flac16 44.1khz ... (0) flac24 96khz ... (0) flac16 44.1khz ... (0) flac16 44.1khz... (0)
Date User Comment