Browse Collections Artists Sources   Search Dates

Add Show    List Management    Help


Phish 07/30/17
Madison Square Garden, New York, NY
Comments Add Comment    Source Collectors    Add to Collection    Add to Want List    History
Source # 139097 Other Sources
Entered by Matt Vernon
Checksums ffp , flac-md5
Disc Counts 0 / 0
Media Size
Date Circulated
Date Added

08/16/2017
Source Summary flac24 96khz Schoeps CMC6/MK4 > Sound Devices 744T (24bit/96k) > Samplitude Pro X3 Suite > FLAC/24. Section 2 Row 1 Seat 20 with the mic stand 9 feet high. Recorded and Mastered By Charlie Miller 
Source Information - Download Text | Download Zip
Phish - July 30, 2017
Madison Square Garden - New York, NY
Baker's Dozen Show 8 - Jimmies

Recording Info:
Schoeps CMC6/MK4 > Sound Devices 744T (24bit/96k) > Samplitude Pro X3 Suite > FLAC/24
(1 DVD FLAC)

Recorded and Mastered By Charlie Miller
[email protected]
August 13, 2017

Notes:
-- Section 2 Row 1 Seat 20 with the mic stand 9 feet high
-- Chris Kuroda allowed me to set up next to him in the lighting booth

Set 1:
01 - Tuning
02 - The Curtain With
03 - Runaway Jim
04 - Waking Up Dead
05 - Esther
06 - Home
07 - Brian And Robert
08 - Nellie Kane
09 - Colonel Forbin's Ascent
10 - Fly Famous Mockingbird
11 - David Bowie

Set 2:
12 - Tuning
13 - Drowned
14 - A Song I Heard The Ocean Sing
15 - Harpua
16 - 2001
17 - Golgi Apparatus
18 - In The Good Old Summertime

Encore:
19 - Encore Break
20 - The Wind Cries Mary


SHNTOOL OUTPUT:
    length     expanded size    cdr  WAVE problems  fmt   ratio  filename
     1:27.696      50512898 B   cxx   --   ---xx   flac  0.5054  01 Tuning.flac
    13:54.679     480775376 B   cxx   --   ---xx   flac  0.5422  02 The Curtain With.flac
    10:36.962     366890072 B   cxx   --   ---xx   flac  0.5589  03 Runaway Jim.flac
     7:03.506     243939644 B   cxx   --   ---xx   flac  0.5528  04 Waking Up Dead.flac
     9:55.483     342998282 B   cxx   --   ---xx   flac  0.5617  05 Esther.flac
     8:53.485     307287476 B   cxx   --   ---xx   flac  0.5648  06 Home.flac
     3:18.920     114577724 B   cxx   --   ---xx   flac  0.5546  07 Brian And Robert.flac
     3:10.311     109619132 B   cxx   --   ---xx   flac  0.5552  08 Nellie Kane.flac
     5:43.659     197947808 B   cxx   --   ---xx   flac  0.5601  09 Colonel Forbin's Ascent.flac
     7:48.466     269836466 B   cxx   --   ---xx   flac  0.5470  10 Fly Famous Mockingbird.flac
    12:06.845     418662962 B   cxx   --   ---xx   flac  0.5415  11 David Bowie.flac
     1:04.954      37413518 B   cxx   --   ---xx   flac  0.4775  12 Tuning.flac
    21:29.892     742977956 B   cxx   --   ---xx   flac  0.5564  13 Drowned.flac
    18:01.581     622990670 B   cxx   --   ---xx   flac  0.5365  14 A Song I Heard The Ocean Sing.flac
    17:17.544     597625538 B   cxx   --   ---xx   flac  0.5275  15 Harpua.flac
     8:28.147     292692944 B   cxx   --   ---xx   flac  0.5494  16 2001.flac
     5:51.088     202226654 B   cxx   --   ---xx   flac  0.5641  17 Golgi Apparatus.flac
     2:47.917      96720188 B   cxx   --   ---xx   flac  0.5427  18 In The Good Old Summertime.flac
     3:24.840     117987770 B   cxx   --   ---xx   flac  0.5259  19 Encore Break.flac
     4:04.301     140717666 B   cxx   --   ---xx   flac  0.5511  20 The Wind Cries Mary.flac
   166:30.278    5754400744 B                            0.5473  (20 files)

Show Checksums
ffp
01 Tuning.flac:326c298c6ba72ece54660aa140f5850b
02 The Curtain With.flac:087612ac03567bc46f10bd9959cd4415
03 Runaway Jim.flac:9666bb1a26d7a987fa238d5806755671
04 Waking Up Dead.flac:ce099545ad3ea744ca6a43215b4a7d6f
05 Esther.flac:9ec49cdbbf1087ae3189feeee7eb6b3d
06 Home.flac:a59221bf272f8029040d19fa77e135fe
07 Brian And Robert.flac:0fa12b889264310f39045573e6c5f06d
08 Nellie Kane.flac:573f856309714f06ac2505b07181beac
09 Colonel Forbin's Ascent.flac:f8c024c3ac040707d15daafbdf0306bd
10 Fly Famous Mockingbird.flac:3c2a3a6f0e69b849f835a283a2eaea0b
11 David Bowie.flac:2682a5e94229325095054228d65cbea2
12 Tuning.flac:68045c6792d40ff1db6c64cb4db59769
13 Drowned.flac:6c4f7efa144f9bb9f84ec8b845da38bf
14 A Song I Heard The Ocean Sing.flac:8515e918cdbbfd04c839f6628b20cf6a
15 Harpua.flac:8b618bdae86df6952f4aa253119cfccf
16 2001.flac:157dde32fe12dea5c7fed5e9292740e0
17 Golgi Apparatus.flac:4e1527530b90a38269f0d2b741506c80
18 In The Good Old Summertime.flac:78fb19b42907e2aa5b9e542a9af8450c
19 Encore Break.flac:d457549b054b627ead2723b1d68e6744
20 The Wind Cries Mary.flac:c3d09823a06f996931c9ec4e0aa0f49b
flac-md5
90965b4d6637599c97f96478d1ee58e8 *01 Tuning.flac
b631e839d17aa342e4d4082ce21c8847 *02 The Curtain With.flac
8df75cf1e59a93caac060a31827de0e1 *03 Runaway Jim.flac
ce0f49bf59a2925d9e6c55397ea78bbc *04 Waking Up Dead.flac
7e695a1ecc8997c3e4f4fb690496415f *05 Esther.flac
f8da21535d7bca8d937d141c4c0d1d9a *06 Home.flac
e195492459f124b5d247f4a86c63cb7b *07 Brian And Robert.flac
054505a217594cfd56cf8bec584d8713 *08 Nellie Kane.flac
6b49d81f532be28b5574aa2ab5b6b239 *09 Colonel Forbin's Ascent.flac
629c0e969553c719981da663e7f510c6 *10 Fly Famous Mockingbird.flac
0153749db634511b457dc756e6cf469f *11 David Bowie.flac
b13818355bb56ab183576f63a1e24a4f *12 Tuning.flac
7fe78ea5b1e07e9b7f8050e7ee8b192a *13 Drowned.flac
b300b35c40083b147705176c0d108272 *14 A Song I Heard The Ocean Sing.flac
5fb4b6195df9f314c7caeb28d789694c *15 Harpua.flac
dcaa4726bd247746b7d740d62ef6a176 *16 2001.flac
a00f4314a377876b1acc564f3847f1c7 *17 Golgi Apparatus.flac
5fb3281cf7428922a9403e70b0660385 *18 In The Good Old Summertime.flac
bfdb8579a77e8a1f3af21e58dcc320a5 *19 Encore Break.flac
962698f7d1ceecb90d09420c63bdc57d *20 The Wind Cries Mary.flac

Comments
Add Comment
Other Sources (comments)
flac16 44.1khz ... (0) flac24 48khz ... (0) flac24 48khz ... (0) flac24 48khz ... (0) flac16 44.1khz ... (0) flac16 44.1khz ... (0) flac16 44.1khz ... (0) flac24 48khz ... (0) flac16 44.1khz ... (0) flac24 48khz ... (0) flac16 44.1khz... (0) flac24 48khz ... (0) flac24 48khz ... (0) flac16 48khz ... (0) flac24 96khz ... (0) flac16 44.1khz ... (0) flac24 96khz ... (0) flac16 44.1khz ... (0) flac24 96khz ... (0) flac16 44.1khz ... (0) flac16 44.1khz ... (1) flac16 44.1khz ... (0)
Date User Comment