Browse Collections Artists Sources   Search Dates

Add Show    List Management    Help


Phish 08/01/17
Madison Square Garden, New York, NY
Comments Add Comment    Source Collectors    Add to Collection    Add to Want List    History
Source # 139098 Other Sources
Entered by Matt Vernon
Checksums ffp , flac-md5
Disc Counts 0 / 0
Media Size
Date Circulated
Date Added

08/16/2017
Source Summary flac24 96khz Schoeps CMC6/MK4 > Sound Devices 744T (24bit/96k) > Samplitude Pro X3 Suite > FLAC/24. Section 2 Row 1 Seat 20 with the mic stand 9 feet high. Recorded and Mastered By Charlie Miller 
Source Information - Download Text | Download Zip
Phish - August 1, 2017
Madison Square Garden - New York, NY
Baker's Dozen Show 9 - Maple

Recording Info:
Schoeps CMC6/MK4 > Sound Devices 744T (24bit/96k) > Samplitude Pro X3 Suite > FLAC/24
(1 DVD FLAC)

Recorded and Mastered By Charlie Miller
[email protected]
August 14, 2017

Notes:
-- Section 2 Row 1 Seat 20 with the mic stand 9 feet high
-- Chris Kuroda allowed me to set up next to him in the lighting booth

Set 1:
01 - Tuning
02 - O Canada
03 - Crowd Control
04 - Sugar Shack
05 - When The Circus Comes To Town
06 - Daniel Saw The Stone
07 - Army Of One
08 - The Wedge
09 - Guelah Papyrus
10 - Maple Leaf Rag
11 - Guelah Papyrus
12 - McGrupp And The Watchful Homemasters
13 - Limb By Limb
14 - Walk Away

Set 2:
15 - Tuning
16 - Golden Age
17 - Leaves
18 - Swept Away
19 - Steep
20 - 46 Days
21 - Piper
22 - Possum

Encore:
23 - Encore Break
24 - Rock n Roll Suicide


SHNTOOL OUTPUT:
    length     expanded size    cdr  WAVE problems  fmt   ratio  filename
     0:40.348      23240678 B   cxx   --   ---xx   flac  0.5208  01 Tuning.flac
     2:17.047      78939146 B   cxx   --   ---xx   flac  0.5348  02 O Canada.flac
     5:33.534     192115610 B   cxx   --   ---xx   flac  0.5625  03 Crowd Control.flac
     6:41.330     231166160 B   cxx   --   ---xx   flac  0.5537  04 Sugar Shack.flac
     5:12.195     179824190 B   cxx   --   ---xx   flac  0.5355  05 When The Circus Comes To Town.flac
     3:44.367     129235352 B   cxx   --   ---xx   flac  0.5579  06 Daniel Saw The Stone.flac
     4:51.931     168152372 B   cxx   --   ---xx   flac  0.5547  07 Army Of One.flac
     7:28.268     258202598 B   cxx   --   ---xx   flac  0.5627  08 The Wedge.flac
     4:22.590     151251626 B   cxx   --   ---xx   flac  0.5533  09 Guelah Papyrus.flac
     0:41.460      23881220 B   cxx   --   ---xx   flac  0.5199  10 Maple Leaf Rag.flac
     1:30.071      51880904 B   cxx   --   ---xx   flac  0.5700  11 Guelah Papyrus.flac
     8:21.546     288890462 B   cxx   --   ---xx   flac  0.5425  12 McGrupp And The Watchful Homemasters.flac
     9:15.274     319837976 B   cxx   --   ---xx   flac  0.5546  13 Limb By Limb.flac
     7:39.545     264698132 B   cxx   --   ---xx   flac  0.5730  14 Walk Away.flac
     0:46.320      26680172 B   cxx   --   ---xx   flac  0.4865  15 Tuning.flac
    20:01.892     692289914 B   cxx   --   ---xx   flac  0.5471  16 Golden Age.flac
     9:18.773     321853220 B   cxx   --   ---xx   flac  0.5375  17 Leaves.flac
     0:56.950      32803280 B   cxx   --   ---xx   flac  0.5005  18 Swept Away.flac
    12:35.790     435335318 B   cxx   --   ---xx   flac  0.5396  19 Steep.flac
    12:01.553     415614812 B   cxx   --   ---xx   flac  0.5248  20 46 Days.flac
    13:03.991     451578680 B   cxx   --   ---xx   flac  0.5566  21 Piper.flac
     9:44.904     336904538 B   cxx   --   ---xx   flac  0.5681  22 Possum.flac
     3:22.267     116506082 B   cxx   --   ---xx   flac  0.5041  23 Encore Break.flac
     4:05.979     141683726 B   cxx   --   ---xx   flac  0.5386  24 Rock n Roll Suicide.flac
   154:17.926    5332566168 B                            0.5477  (24 files)

Show Checksums
ffp
01 Tuning.flac:171cab71278a0cefec407c204dd6e579
02 O Canada.flac:0925707eba48e43d6cf583d10dac7f5b
03 Crowd Control.flac:5c21a01c47e2fe65a3e69a8f408a4ce6
04 Sugar Shack.flac:ab57e373cf269aca6e7d7b756bfaae07
05 When The Circus Comes To Town.flac:78ddf4ef7c10348a4dfa568ede81fa44
06 Daniel Saw The Stone.flac:307a0b39b611ad63eeed111954dedfda
07 Army Of One.flac:4d8cd56d5f1f654d0a0267b88db5c04d
08 The Wedge.flac:8ce22bac30c2e97254987c185793859b
09 Guelah Papyrus.flac:1b0cd41a09060eea7d003f3a684770ae
10 Maple Leaf Rag.flac:9cbabb6ba222c9945e54e3c5d83fdd98
11 Guelah Papyrus.flac:6090ce2a545f82e54e30577e7713c839
12 McGrupp And The Watchful Homemasters.flac:bd5ce2c716fbb5bd7318ce077819b81a
13 Limb By Limb.flac:355b3df877272e3603956c4d435e3848
14 Walk Away.flac:d53896b93e31f32705d655f2bfa2dd96
15 Tuning.flac:ef99a5bddee3e71124bd29ca91b72fbd
16 Golden Age.flac:74424794f31224f818526a6614e76bea
17 Leaves.flac:ab9a9d6af9933f021b2d17491187f6df
18 Swept Away.flac:da1bbc1f8f2c32c19f971dedcde1f932
19 Steep.flac:274b14b2d2224378c6bb5ffaa93d00ac
20 46 Days.flac:865d6b002883a6a68c260ffd345380ff
21 Piper.flac:fa815a9ffebb7ca3b469c5f0bf6ca4f9
22 Possum.flac:dcfa97c4f16a22a9f43db56d5a2f4ef1
23 Encore Break.flac:d05e1d8472787d319cd425af3bb053c6
24 Rock n Roll Suicide.flac:4dfc27f1cef5ff6df06b4c55c5f8fbd8
flac-md5
7f90ab92b05a265dcb79cadf76611236 *01 Tuning.flac
0498525099ab58fbe83c809ea46686b3 *02 O Canada.flac
5060d60d1c78284c44a26fcc13beec01 *03 Crowd Control.flac
f9588d191326b1ac987eacc4049009c7 *04 Sugar Shack.flac
52b64fc42c03a1f81d3dfd1417a16da7 *05 When The Circus Comes To Town.flac
7e8523ff9aa095037cb946384fdda86a *06 Daniel Saw The Stone.flac
cb78956e9e65cbb96502ec1382a0be66 *07 Army Of One.flac
fcdefd27d148361fedfbc39c323029f0 *08 The Wedge.flac
ec5265fd6d8eaf25eb25fae26b1dca49 *09 Guelah Papyrus.flac
1695250c2644a2ae1fc90f4be622edf4 *10 Maple Leaf Rag.flac
a29b99fd849e6034f138180e8f7a0a48 *11 Guelah Papyrus.flac
223074bc8da088319e0174d303527499 *12 McGrupp And The Watchful Homemasters.flac
611311d9ac606889968cb2eb63d8357b *13 Limb By Limb.flac
4829db2360900b217b4da3eb42630f69 *14 Walk Away.flac
af5ba684ee30ae29d2ab451b646db285 *15 Tuning.flac
e2542449698b385ae8b5a9e3f6eac711 *16 Golden Age.flac
afa273e5b57f5777b2d6d227402d557e *17 Leaves.flac
4af2b296ccc3793f275f60f4f2ed7eca *18 Swept Away.flac
f322a7ff7d9896e533ac206225bdf97f *19 Steep.flac
b906c39e16e361eb08c8edceea7a6f77 *20 46 Days.flac
ec8b6552ab1f4a26714ba106a0c3da92 *21 Piper.flac
77dd29c4e34d1fc0d06e2c11a2b93e03 *22 Possum.flac
65a99c91a3fbf64449fad87e4c1abef3 *23 Encore Break.flac
a1d508ce71926d44882ec50d5f8057e9 *24 Rock n Roll Suicide.flac

Comments
Add Comment
Other Sources (comments)
flac16 44.1khz ... (0) flac16 44.1khz ... (0) flac24 48khz ... (0) flac24 96khz Field:... (0) flac16 48khz ... (0) flac16 44.1khz ... (1) flac16 44.1khz... (0)
Date User Comment