Browse Collections Artists Sources   Search Dates

Add Show    List Management    Help


Phish 08/02/17
Madison Square Garden, New York, NY
Comments Add Comment    Source Collectors    Add to Collection    Add to Want List    History
Source # 139099 Other Sources
Entered by Matt Vernon
Checksums ffp , flac-md5
Disc Counts 0 / 0
Media Size
Date Circulated
Date Added

08/16/2017
Source Summary flac24 96khz Schoeps CMC6/MK4 > Sound Devices 744T (24bit/96k) > Samplitude Pro X3 Suite > FLAC/24. Section 2 Row 1 Seat 20 with the mic stand 9 feet high. Recorded and Mastered By Charlie Miller 
Source Information - Download Text | Download Zip
Phish - August 2, 2017
Madison Square Garden - New York, NY
Baker's Dozen Show 10 - Holes

Recording Info:
Schoeps CMC6/MK4 > Sound Devices 744T (24bit/96k) > Samplitude Pro X3 Suite > FLAC/24
(1 DVD FLAC)

Recorded and Mastered By Charlie Miller
[email protected]
August 14, 2017

Notes:
-- Section 2 Row 1 Seat 20 with the mic stand 9 feet high
-- Chris Kuroda allowed me to set up next to him in the lighting booth

Set 1:
01 - Tuning
02 - Way Down The Hole
03 - Buried Alive
04 - Kill Devil Falls
05 - Guyute
06 - I Don't Know
07 - NICU
08 - Meat
09 - Maze
10 - Ginseng Sullivan
11 - Waiting All Night
12 - Heavy Things
13 - Run Like An Antelope

Set 2:
14 - Tuning
15 - Mike's Song
16 - O Holy Night
17 - Taste
18 - Wingsuit
19 - Sneakin' Sally Through The Alley
20 - Weekapaug Groove

Encore:
21 - Encore Break
22 - A Day In The Life


SHNTOOL OUTPUT:
    length     expanded size    cdr  WAVE problems  fmt   ratio  filename
     1:06.049      38044490 B   cxx   --   ---xx   flac  0.5174  01 Tuning.flac
     4:00.044     138265568 B   cxx   --   ---xx   flac  0.5500  02 Way Down In The Hole.flac
     3:37.815     125461712 B   cxx   --   ---xx   flac  0.5600  03 Buried Alive.flac
     9:48.138     338767316 B   cxx   --   ---xx   flac  0.5521  04 Kill Devil Falls.flac
    11:13.232     387781514 B   cxx   --   ---xx   flac  0.5503  05 Guyute.flac
     4:14.356     146509166 B   cxx   --   ---xx   flac  0.5230  06 I Don't Know.flac
     6:04.756     210099248 B   cxx   --   ---xx   flac  0.5524  07 NICU.flac
     9:22.063     323748152 B   cxx   --   ---xx   flac  0.5335  08 Meat.flac
    10:40.503     368930054 B   cxx   --   ---xx   flac  0.5683  09 Maze.flac
     3:27.329     119421278 B   cxx   --   ---xx   flac  0.5486  10 Ginseng Sullivan.flac
     6:15.709     216408476 B   cxx   --   ---xx   flac  0.5580  11 Waiting All Night.flac
     6:05.332     210431324 B   cxx   --   ---xx   flac  0.5557  12 Heavy Things.flac
    11:49.037     408405218 B   cxx   --   ---xx   flac  0.5579  13 Run Like An Antelope.flac
     0:44.737      25768832 B   cxx   --   ---xx   flac  0.4817  14 Tuning.flac
    22:11.527     766959716 B   cxx   --   ---xx   flac  0.5558  15 Mike's Song.flac
     2:21.202      81332396 B   cxx   --   ---xx   flac  0.5712  16 O Holy Night.flac
    18:29.186     638890976 B   cxx   --   ---xx   flac  0.5567  17 Taste.flac
    11:00.825     380635010 B   cxx   --   ---xx   flac  0.5440  18 Wingsuit.flac
     6:52.473     237584330 B   cxx   --   ---xx   flac  0.5489  19 Sneakin' Sally Through The Alley.flac
     9:20.641     322929008 B   cxx   --   ---xx   flac  0.5685  20 Weekapaug Groove.flac
     3:14.100     111801818 B   cxx   --   ---xx   flac  0.5094  21 Encore Break.flac
     6:06.021     210828236 B   cxx   --   ---xx   flac  0.5483  22 A Day In The Life.flac
   168:05.074    5809003838 B                            0.5521  (22 files)

Show Checksums
ffp
01 Tuning.flac:cbe98b9c899632034c4ea4316248f6c9
02 Way Down In The Hole.flac:bea79e8ab5b2007226028349e1cf0e1a
03 Buried Alive.flac:76898ea04728d99710c07710919c316b
04 Kill Devil Falls.flac:ea4a778619eba27c66f0c361db0f3b40
05 Guyute.flac:9ebdd0d486f067957123a71226b0a938
06 I Don't Know.flac:ad24d956431235f40417f35f5731796c
07 NICU.flac:e6a8fd34b2049135a11acf638e55c64f
08 Meat.flac:e35ae4216ec8a7dc64cfd3b5322aa31e
09 Maze.flac:8be587fee082656608fe47c9f51541d3
10 Ginseng Sullivan.flac:f5f17662b98254e3019fb121a45a33b8
11 Waiting All Night.flac:e6392edf1413168f90a8ac5cae518928
12 Heavy Things.flac:aa3b118c20243a10c2c65fb8e2ddc002
13 Run Like An Antelope.flac:9fe89125d68ce6a3fd1d3a35713f45b0
14 Tuning.flac:0f7502bebc3e29587929b1386daa9b9a
15 Mike's Song.flac:df6839178b3308397c09b26ad2a84097
16 O Holy Night.flac:34dd37939f31c80bd86e805b55a84421
17 Taste.flac:42167742a13b788d7c6781775dc695d7
18 Wingsuit.flac:d521742131a053b64d29d0bbfda102ce
19 Sneakin' Sally Through The Alley.flac:63fc53d2aeca5d565c78e276969695a7
20 Weekapaug Groove.flac:a0d1f3303eb42520435fd9b1628b1936
21 Encore Break.flac:21ea37cc228da5df31bdf1815f14874a
22 A Day In The Life.flac:41b96ea62bd98a06bd65fb08cadb6c75
flac-md5
c7525f5a39850652c439897c55f950fb *01 Tuning.flac
97beef2c5284f415f1471a3cf38de6c5 *02 Way Down In The Hole.flac
fed229603f7f6cd70efe23c5dee2dd20 *03 Buried Alive.flac
8ae3d20e832c94a9667c5b76975f67b2 *04 Kill Devil Falls.flac
ed5cade18add5437369c6179938bbc62 *05 Guyute.flac
2743fd969fdc85942381237b09bf1229 *06 I Don't Know.flac
41c1dd157b884f603fcca985132509fa *07 NICU.flac
9a9edaa622cca7748784389101b1e83c *08 Meat.flac
c55f3c63e380e787c42325a6ae3760c4 *09 Maze.flac
c2738941df804ea1a3627bbbd929b4d9 *10 Ginseng Sullivan.flac
e129257f8c1ee593370d651be9ea5e49 *11 Waiting All Night.flac
55faf2e98cbd38d8698a9d4e556fcf0a *12 Heavy Things.flac
b22cb4880b3b63e01a3600c6af05a22d *13 Run Like An Antelope.flac
063aa578fe102f21dcf12b821a74b465 *14 Tuning.flac
65261a082faace2e500466051ffe8b74 *15 Mike's Song.flac
383d821509ddfec1761ea88040eadf87 *16 O Holy Night.flac
341354287fe9231f3aebec3108b5a67e *17 Taste.flac
0c05eb3973630ca1b55606414b3d8050 *18 Wingsuit.flac
5899e34ed40658a044aa0ba29674cab7 *19 Sneakin' Sally Through The Alley.flac
e7d6e33d4b19a538e70dba1b6b3c97fc *20 Weekapaug Groove.flac
aed8c0acad6f93759389ffc49f9551d5 *21 Encore Break.flac
dba09b8aceba9cab4c4308d27552b4ec *22 A Day In The Life.flac

Comments
Add Comment
Other Sources (comments)
flac16 44.1khz... (0) flac24 48khz ... (0) flac16 44.1khz... (0) flac24 48khz... (0) flac16 48khz ... (0) flac24 96khz ... (0) flac16 44.1khz ... (1) flac16 44.1khz... (0)
Date User Comment