Browse Collections Artists Sources   Search Dates

Add Show    List Management    Help


Phish 08/04/17
Madison Square Garden, New York, NY
Comments Add Comment    Source Collectors    Add to Collection    Add to Want List    History
Source # 139100 Other Sources
Entered by Matt Vernon
Checksums ffp , flac-md5
Disc Counts 0 / 0
Media Size
Date Circulated
Date Added

08/16/2017
Source Summary flac24 96khz Schoeps CMC6/MK4 > Sound Devices 744T (24bit/96k) > Samplitude Pro X3 Suite > FLAC/24. Section 2 Row 1 Seat 20 with the mic stand 9 feet high. Recorded and Mastered By Charlie Miller 
Source Information - Download Text | Download Zip
Phish - August 4, 2017
Madison Square Garden - New York, NY
Baker's Dozen Show 11 - Lemon

Recording Info:
Schoeps CMC6/MK4 > Sound Devices 744T (24bit/96k) > Samplitude Pro X3 Suite > FLAC/24
(1 DVD FLAC)

Recorded and Mastered By Charlie Miller
[email protected]
August 14, 2017

Notes:
-- Section 2 Row 1 Seat 20 with the mic stand 9 feet high
-- Chris Kuroda allowed me to set up next to him in the lighting booth

Set 1:
01 - Tuning
02 - See That My Grave Is Kept Clean
03 - Punch You In The Eye
04 - Party Time
05 - Big Black Furry Creatures From Mars
06 - Dinner Ave A Movie
07 - Ocelot
08 - Poor Heart
09 - Winterqueen
10 - Bold As Love
11 - First Tube

Set 2:
12 - Tuning
13 - Dem Bones
14 - No Men In No Man's Land
15 - Everything In It's Right Place
16 - What's The Use
17 - Scents And Subtle Sounds
18 - Prince Caspian
19 - Fluffhead

Encore:
20 - Encore Break
21 - Frankenstein


SHNTOOL OUTPUT:
    length     expanded size    cdr  WAVE problems  fmt   ratio  filename
     1:08.160      39259928 B   cxx   --   ---xx   flac  0.5378  01 Tuning.flac
     5:57.590     205971992 B   cxx   --   ---xx   flac  0.5553  02 See That My Grave Is Kept Clean.flac
     8:01.743     277483934 B   cxx   --   ---xx   flac  0.5548  03 Punch You In The Eye.flac
     8:40.775     299966216 B   cxx   --   ---xx   flac  0.5614  04 Party Time.flac
     4:44.802     164045924 B   cxx   --   ---xx   flac  0.5484  05 Big Black Furry Creatures From Mars.flac
     3:49.674     132292370 B   cxx   --   ---xx   flac  0.5666  06 Dinner And A Movie.flac
     9:39.354     333708164 B   cxx   --   ---xx   flac  0.5531  07 Ocelot.flac
     2:37.534      90739898 B   cxx   --   ---xx   flac  0.5596  08 Poor Heart.flac
     9:38.257     333075914 B   cxx   --   ---xx   flac  0.5478  09 Winterqueen.flac
     6:02.683     208905530 B   cxx   --   ---xx   flac  0.5637  10 Bold As Love.flac
    10:54.936     377243240 B   cxx   --   ---xx   flac  0.5920  11 First Tube.flac
     1:05.957      37991324 B   cxx   --   ---xx   flac  0.5360  12 Tuning.flac
     2:36.273      90013508 B   cxx   --   ---xx   flac  0.5323  13 Dem Bones.flac
    14:00.136     483918584 B   cxx   --   ---xx   flac  0.5669  14 No Men In No Man's Land.flac
     6:36.534     228403472 B   cxx   --   ---xx   flac  0.5490  15 Everything In It's Right Place.flac
     6:41.349     231177266 B   cxx   --   ---xx   flac  0.5418  16 What's The Use.flac
    16:33.569     572296034 B   cxx   --   ---xx   flac  0.5642  17 Scents And Subtle Sounds.flac
    10:07.476     349905932 B   cxx   --   ---xx   flac  0.5492  18 Prince Caspian.flac
    16:46.764     579896378 B   cxx   --   ---xx   flac  0.5486  19 Fluffhead.flac
     4:14.484     146582714 B   cxx   --   ---xx   flac  0.5071  20 Encore Break.flac
     6:49.575     235915172 B   cxx   --   ---xx   flac  0.5664  21 Frankenstein.flac
   156:47.626    5418793494 B                            0.5566  (21 files)

Show Checksums
ffp
01 Tuning.flac:eb67682879c94bed49d55235409a200e
02 See That My Grave Is Kept Clean.flac:147d53bd6ef31762b25f1b69792b1c9a
03 Punch You In The Eye.flac:aa2325e4c04efcf09e05621be18f26df
04 Party Time.flac:d1ce8447fcd40b7196a52a62d527afdb
05 Big Black Furry Creatures From Mars.flac:b7a469e000cfffdd47ea441cc8c9d08c
06 Dinner And A Movie.flac:bfe81c42ddf4b6fc6f0e8273598c19cf
07 Ocelot.flac:89e7c21ebd135902bfde1fb45d7bf0d3
08 Poor Heart.flac:243b274d859049e72699dc26497a55e5
09 Winterqueen.flac:1d9043f9e43eedd95cd050552df69fa8
10 Bold As Love.flac:aba9fd3327b2b8cecb6fb655c1350b27
11 First Tube.flac:8e87b5dd835b2a821a6ad79becc157f6
12 Tuning.flac:78968898b8ea1570e8048de0505b4d79
13 Dem Bones.flac:ec30644833230ba344cd03518ace682b
14 No Men In No Man's Land.flac:99ff324c43fe0e1448d65421455ad5b9
15 Everything In It's Right Place.flac:988bfe4cc3b20e4c382f4cacdd522b95
16 What's The Use.flac:4f9221091e006a36c235040832774c5d
17 Scents And Subtle Sounds.flac:7a72fdd890250da32844de6f7e5fc7af
18 Prince Caspian.flac:a36e47bcb826c518381a773d5de18ac7
19 Fluffhead.flac:5ae1d1fcf2d44422285a1e5a78c70551
20 Encore Break.flac:e7a85def14dbd8e24b4fe2aeb6aabbbf
21 Frankenstein.flac:b8714215a170adf93774f6ca5ff3fcba
flac-md5
163d5a71825a12f6ded6fa200fa5758c *01 Tuning.flac
5fb3966597be92c795d10c91dc001e0f *02 See That My Grave Is Kept Clean.flac
b55590958f32b592491439bad7a80306 *03 Punch You In The Eye.flac
04de365445baa456b2bb724568ef5a91 *04 Party Time.flac
bc183e4e9bd55fb5619c06ca103e37a2 *05 Big Black Furry Creatures From Mars.flac
7facfc2b7af5afe3773638c5a078b1cf *06 Dinner And A Movie.flac
14dcb8788ac504fad700fddca90ab275 *07 Ocelot.flac
a545a60263e656ed8e40711c4b7dec83 *08 Poor Heart.flac
e8d4ad800c998ff6af9240e710e80d2d *09 Winterqueen.flac
69c3317f26705bd813e10f30f3b043c5 *10 Bold As Love.flac
7d6a338e3e8b073457e81dad7aaa1f20 *11 First Tube.flac
8ffbdf8e598298bd8f4f89614b41cadb *12 Tuning.flac
7a968af0947914ab0f76346ce06c952f *13 Dem Bones.flac
390b51450e0627521a88ed9baa24882f *14 No Men In No Man's Land.flac
336eceb5f4211e90caa7ab532719425f *15 Everything In It's Right Place.flac
df297ed9dd2cfd330d21b6113693e331 *16 What's The Use.flac
773ab6494e011f483c908c80ab3c6eee *17 Scents And Subtle Sounds.flac
09b173945d99f2e099816484ed4564dd *18 Prince Caspian.flac
64527b8247fa95b1b3260be2d0ae1398 *19 Fluffhead.flac
66009f37ce0e3c5571436bb0d7d14c9a *20 Encore Break.flac
3a44b115ffd22a74e9386c85fa91c582 *21 Frankenstein.flac

Comments
Add Comment
Other Sources (comments)
flac16 44.1khz ... (0) flac16 44.1khz ... (0) flac16 44.1khz ... (0) flac24 48khz ... (0) flac16 44.1khz ... (0) flac16 48khz Field:... (0) flac24 96khz... (0) flac16 44.1khz ... (1) flac24 96khz ... (0) flac24 96khz ... (0) flac24 96khz ... (0) flac24 48khz ... (0) flac24 48khz... (0) flac16 44.1khz... (0) flac24 48khz ... (0) flac16 44.1khz ... (0) flac16 48kHz Neumann... (0)
Date User Comment