Browse Collections Artists Sources   Search Dates

Add Show    List Management    Help


Phish 08/05/17
Madison Square Garden, New York, NY
Comments Add Comment    Source Collectors    Add to Collection    Add to Want List    History
Source # 139101 Other Sources
Entered by Matt Vernon
Checksums ffp , flac-md5
Disc Counts 0 / 0
Media Size
Date Circulated
Date Added

08/16/2017
Source Summary flac24 96khz Schoeps CMC6/MK4 > Sound Devices 744T (24bit/96k) > Samplitude Pro X3 Suite > FLAC/24. Section 2 Row 1 Seat 20 with the mic stand 9 feet high. Recorded and Mastered By Charlie Miller 
Source Information - Download Text | Download Zip
Phish - August 5, 2017
Madison Square Garden - New York, NY
Baker's Dozen Show 12 - Boston Cream

Recording Info:
Schoeps CMC6/MK4 > Sound Devices 744T (24bit/96k) > Samplitude Pro X3 Suite > FLAC/24
(1 DVD FLAC)

Recorded and Mastered By Charlie Miller
[email protected]
August 14, 2017

Notes:
-- Section 2 Row 1 Seat 20 with the mic stand 9 feet high
-- Chris Kuroda allowed me to set up next to him in the lighting booth

Set 1:
01 - Tuning
02 - Soul Shakedown Party
03 - Uncle Pen
04 - The Sloth
05 - Gotta Jibboo
06 - Fuck Your Face
07 - Sunshine Of Your Feeling
08 - Frost
09 - Scent Of A Mule
10 - Fire
11 - Alaska
12 - Plasma

Set 2:
13 - Tuning
14 - Ghost
15 - Petrichor
16 - Light
17 - The Lizards
18 - The Horse
19 - Silent In The Morning
20 - The Mighty Quinn (Quinn The Eskimo)
21 - Rocky Top

Encore:
22 - Encore Break
23 - Joy


SHNTOOL OUTPUT:
    length     expanded size    cdr  WAVE problems  fmt   ratio  filename
     1:08.262      39319226 B   cxx   --   ---xx   flac  0.5138  01 Tuning.flac
     5:13.499     180575552 B   cxx   --   ---xx   flac  0.5521  02 Soul Shakedown Party.flac
     4:42.306     162608534 B   cxx   --   ---xx   flac  0.5498  03 Uncle Pen.flac
     4:22.654     151288796 B   cxx   --   ---xx   flac  0.5595  04 The Sloth.flac
    13:51.952     479204162 B   cxx   --   ---xx   flac  0.5437  05 Gotta Jibboo.flac
     3:04.848     106472210 B   cxx   --   ---xx   flac  0.5440  06 Fuck Your Face.flac
     6:53.312     238067834 B   cxx   --   ---xx   flac  0.5496  07 Sunshine Of Your Feeling.flac
     6:15.383     216220808 B   cxx   --   ---xx   flac  0.5414  08 Frost.flac
    10:28.094     361782380 B   cxx   --   ---xx   flac  0.5327  09 Scent Of A Mule.flac
     4:10.609     144350960 B   cxx   --   ---xx   flac  0.5790  10 Fire.flac
     8:07.038     280534196 B   cxx   --   ---xx   flac  0.5540  11 Alaska.flac
    11:03.821     382361024 B   cxx   --   ---xx   flac  0.5458  12 Plasma.flac
     0:39.484      22742948 B   cxx   --   ---xx   flac  0.4929  13 Tuning.flac
    20:41.069     714855566 B   cxx   --   ---xx   flac  0.5507  14 Ghost.flac
    16:47.463     580298996 B   cxx   --   ---xx   flac  0.5256  15 Petrichor.flac
    12:58.535     448435964 B   cxx   --   ---xx   flac  0.5522  16 Light.flac
    10:48.277     373407596 B   cxx   --   ---xx   flac  0.5599  17 The Lizards.flac
     0:52.488      30232916 B   cxx   --   ---xx   flac  0.4877  18 The Horse.flac
     5:03.442     174782906 B   cxx   --   ---xx   flac  0.5517  19 Silent In The Morning.flac
     5:45.869     199220414 B   cxx   --   ---xx   flac  0.5702  20 The Mighty Quinn (Quinn The Eskimo).flac
     2:43.402      94119548 B   cxx   --   ---xx   flac  0.5703  21 Rocky Top.flac
     3:09.412     109101524 B   cxx   --   ---xx   flac  0.5048  22 Encore Break.flac
     6:27.284     223075424 B   cxx   --   ---xx   flac  0.5402  23 Joy.flac
   165:18.504    5713059484 B                            0.5463  (23 files)

Show Checksums
ffp
01 Tuning.flac:85fade5f372a8d2cb79a6e10e095fd1d
02 Soul Shakedown Party.flac:33b16b659cbe067f4e6f2d02150a992f
03 Uncle Pen.flac:5659d39c5271fc332c1c7861536faf79
04 The Sloth.flac:26226fecd30582f7504f22f00ccac788
05 Gotta Jibboo.flac:10de20404b10fbe6ae7b2c094ad0da30
06 Fuck Your Face.flac:5988507f0c9f33a4c780007a7634a977
07 Sunshine Of Your Feeling.flac:aff7bdad8228b9f08375fb4f8218de21
08 Frost.flac:a8cc6816fa215b1643418fd6c6cbcbfe
09 Scent Of A Mule.flac:816e40175beee3458ee594a0386dd048
10 Fire.flac:feff35fef05becd8bf4fa5fd43924544
11 Alaska.flac:012f81dd4a8a494a208d22c427a3ff4f
12 Plasma.flac:f39fb7564deb5ddc793068eb5780af1e
13 Tuning.flac:3b953eaa53d68ed8093f24394cb2c973
14 Ghost.flac:e36fb7212d47eaec7671c232531aad9d
15 Petrichor.flac:116f6038099bafdc6c706faba40cdef0
16 Light.flac:9db2cf7c3a6d52d987ecd93d5d8c2109
17 The Lizards.flac:8a9b0c1534e3992d3fbcc3f88cec3a5c
18 The Horse.flac:edc441ea87821ad2efcc8d6fc4d65e7d
19 Silent In The Morning.flac:33417ca021ebcffcad14eb3034611c68
20 The Mighty Quinn (Quinn The Eskimo).flac:92979a59e2d667b67e4f21649b9e6de0
21 Rocky Top.flac:1d076d511988c143c0b610c75aeb4251
22 Encore Break.flac:ffe1c1d3ad1dc80bf7213298bfe4a296
23 Joy.flac:63d4f1d5e6ec78006d472a5a500de450
flac-md5
81bd6ae11e57a6e570792dbe7848006c *01 Tuning.flac
6138fac200cfeb49833a31ca5aac0733 *02 Soul Shakedown Party.flac
74d33dc053ec706297a95793bcd90c43 *03 Uncle Pen.flac
a59df69dc792d957ea1258b3d71815a3 *04 The Sloth.flac
33da6285b0b9786975a549ec76d89a57 *05 Gotta Jibboo.flac
475a3ca9238a2c53bf4a74e7b6793b94 *06 Fuck Your Face.flac
129f3980f2b2f2c09eebe6e6bc017ecf *07 Sunshine Of Your Feeling.flac
39d531597d549397f3c5ab7b4fee08bc *08 Frost.flac
f4f90daba1a615fb1c1e0c7c7c755807 *09 Scent Of A Mule.flac
6cb0c601454c1fe2c4277aaf7c847e4a *10 Fire.flac
c76921cd05b567748024f38ed9102608 *11 Alaska.flac
7dca3f9ccb60ec07fa2afd866607120c *12 Plasma.flac
72464ba670279140cd63db71496e059b *13 Tuning.flac
a76b914ea6f87e53c0e5b26e09506a66 *14 Ghost.flac
150e9a59e2c27a98aa5953981f467d63 *15 Petrichor.flac
6b958bd8c4126ce47b1ea72705b59fa4 *16 Light.flac
f9b33bb9e93a5b2f39040d82acfe4ea7 *17 The Lizards.flac
d3bc29d3421224af2dcec8d2ecb9a49b *18 The Horse.flac
79da0bb9d0bb9b5cce5a2e3af882154c *19 Silent In The Morning.flac
2ce67c5ddb473b14556275e68b4d7714 *20 The Mighty Quinn (Quinn The Eskimo).flac
d1207a18575e097bc7fe9b5315a1654d *21 Rocky Top.flac
3a01e802411868f4e400ad90e1824ebd *22 Encore Break.flac
aaafcbb245764ea326ef412b7aab0ff8 *23 Joy.flac

Comments
Add Comment
Other Sources (comments)
flac16 44.1khs ... (0) flac24 48khz... (0) flac16 44.1khz... (0) flac16 44.1khz ... (0) flac16 44.1khz ... (0) flac16 44.1khz ... (0) flac24 48khz ... (0) flac16 48khz ... (1) flac24 96khz ... (0) flac16 44.1khz ... (0) flac24 96khz... (0) flac24 96khz... (0) flac24 96khz ... (0) flac24 48khz ... (0) flac16 44.1khz ... (0) flac16 44.1khz ... (0) flac16 44.1khz A... (0) flac16 44.1khz ... (0) flac16 48kHz Neumann... (0)
Date User Comment