Browse Collections Artists Sources   Search Dates

Add Show    List Management    Help


Phish 08/06/17
Madison Square Garden, New York, NY
Comments Add Comment    Source Collectors    Add to Collection    Add to Want List    History
Source # 139102 Other Sources
Entered by Matt Vernon
Checksums ffp , flac-md5
Disc Counts 0 / 0
Media Size
Date Circulated
Date Added

08/16/2017
Source Summary flac24 96khz Schoeps CMC6/MK4 > Sound Devices 744T (24bit/96k) > Samplitude Pro X3 Suite > FLAC/24. Section 2 Row 1 Seat 20 with the mic stand 9 feet high. Recorded and Mastered By Charlie Miller 
Source Information - Download Text | Download Zip
Phish - August 6, 2017
Madison Square Garden - New York, NY
Baker's Dozen Show 13 - Glazed

Recording Info:
Schoeps CMC6/MK4 > Sound Devices 744T (24bit/96k) > Samplitude Pro X3 Suite > FLAC/24
(1 DVD FLAC)

Recorded and Mastered By Charlie Miller
[email protected]
August 15, 2017

Notes:
-- Section 2 Row 1 Seat 20 with the mic stand 9 feet high
-- Chris Kuroda allowed me to set up next to him in the lighting booth

Set 1:
01 - Tuning
02 - Dogs Stole things
03 - Rift
04 - Ha Ha Ha
05 - Camel Walk
06 - Crazy Sometimes
07 - Saw It Again
08 - Sanity
09 - Bouncing Around The Room
10 - Most Events Aren't Planned
11 - Bug
12 - I Been Around
13 - Izabella

Set 2:
14 - Tuning
15 - Simple
16 - Rise/Come Together
17 - Starman
18 - You Enjoy Myself
19 - Loving Cup

Encore:
20 - Encore Break
21 - On The Road Again
22 - Lawn Boy Reprise
23 - Tweezer Reprise


SHNTOOL OUTPUT:
    length     expanded size    cdr  WAVE problems  fmt   ratio  filename
     1:00.993      35132024 B   cxx   --   ---xx   flac  0.5090  01 Tuning.flac
     4:26.092     153269252 B   cxx   --   ---xx   flac  0.5564  02 Dogs Stole Things.flac
     6:25.537     222069560 B   cxx   --   ---xx   flac  0.5616  03 Rift.flac
     1:37.459      56136638 B   cxx   --   ---xx   flac  0.5557  04 Ha Ha Ha.flac
     6:20.736     219304022 B   cxx   --   ---xx   flac  0.5262  05 Camel Walk.flac
     7:43.563     267012386 B   cxx   --   ---xx   flac  0.5516  06 Crazy Sometimes.flac
     5:59.636     207150164 B   cxx   --   ---xx   flac  0.5655  07 Saw It Again.flac
     5:31.682     191048762 B   cxx   --   ---xx   flac  0.5191  08 Sanity.flac
     4:01.146     138900224 B   cxx   --   ---xx   flac  0.5636  09 Bouncing Around The Room.flac
    11:38.437     402299942 B   cxx   --   ---xx   flac  0.5530  10 Most Events Aren't Planned.flac
     7:45.044     267865592 B   cxx   --   ---xx   flac  0.5334  11 Bug.flac
     3:14.612     112096388 B   cxx   --   ---xx   flac  0.5432  12 I Been Around.flac
     6:44.908     233227106 B   cxx   --   ---xx   flac  0.5720  13 Izabella.flac
     0:30.606      17628950 B   cxx   --   ---xx   flac  0.4871  14 Tuning.flac
    25:34.040     883607366 B   cxx   --   ---xx   flac  0.5497  15 Simple.flac
     7:23.855     255660512 B   cxx   --   ---xx   flac  0.5456  16 Rise Come Together.flac
     5:29.532     189810212 B   cxx   --   ---xx   flac  0.5550  17 Starman.flac
    23:58.049     828316472 B   cxx   --   ---xx   flac  0.5458  18 You Enjoy Myself.flac
     6:36.994     228668468 B   cxx   --   ---xx   flac  0.5636  19 Loving Cup.flac
     4:39.602     161050730 B   cxx   --   ---xx   flac  0.5362  20 Encore Break.flac
     2:30.127      86473424 B   cxx   --   ---xx   flac  0.5495  21 On The Road Again.flac
     1:59.838      69026552 B   cxx   --   ---xx   flac  0.5544  22 Lawn Boy Reprise.flac
     4:10.733     144422126 B   cxx   --   ---xx   flac  0.5776  23 Tweezer Reprise.flac
   155:23.222    5370176872 B                            0.5496  (23 files)

Show Checksums
ffp
01 Tuning.flac:76dc6b86002cbc0ae3b27cd3e507b84b
02 Dogs Stole Things.flac:d6b99a47516adbcf0b376773366be77f
03 Rift.flac:c3cc32208e3c0451cd381abda1b15698
04 Ha Ha Ha.flac:bcdcd849983daea49b128824d060d318
05 Camel Walk.flac:bca2db14f0351abd41a272aa0a565126
06 Crazy Sometimes.flac:54b0a8cd58c3e5f19dab223494baf439
07 Saw It Again.flac:a157da9405427fe58277ca819272d63b
08 Sanity.flac:ba732f4197452618d0c0082cde0e2ef0
09 Bouncing Around The Room.flac:3c69d8aa28228493cdcf94a69416e716
10 Most Events Aren't Planned.flac:62748acfc45eab20a716fc5a7aa24a04
11 Bug.flac:281b063e79bf62242560729ea54e27d9
12 I Been Around.flac:cbf05f10285be61c1f6bc69632808b19
13 Izabella.flac:78208fba0404358f99d2a27d98f573fa
14 Tuning.flac:07a4520fd9ed2ab3d77107d6cc30ba2d
15 Simple.flac:585e65aa3b4ccbd455f3eb7566170dc0
16 Rise Come Together.flac:ce9a1d2337ec858e9c503ebf4a097709
17 Starman.flac:32e4df72a94f8c0ea9b664f1ca6e58ba
18 You Enjoy Myself.flac:2d478c34eb915c1e8bf78512405fe64e
19 Loving Cup.flac:bc4808a832c27e9cd37196a776f86d56
20 Encore Break.flac:8724436b1df663960ff5a004a15222e7
21 On The Road Again.flac:f23ca05f3524c953c0a9c94e2dbc7661
22 Lawn Boy Reprise.flac:2839746e7c8a221a13d4507f1eef6bd7
23 Tweezer Reprise.flac:b2adffc900a34becd27e0590d7489f95
flac-md5
847393fb526b465ab1ff555859ca742f *01 Tuning.flac
78f1c2f8ff2a76a6fc7ce47c8ff120ed *02 Dogs Stole Things.flac
66cb669a2b39d2df192ae1358adb16bd *03 Rift.flac
b5cbc5821abd7f454d86a3827e1c1e71 *04 Ha Ha Ha.flac
89cd66961f101ed1c8d17edafee4f183 *05 Camel Walk.flac
c541edc9c3d0c9941961d66be25cbdde *06 Crazy Sometimes.flac
8cf0f92f13034c60f1869c9486431238 *07 Saw It Again.flac
c67bbb37393cbf0eca915d72ec141290 *08 Sanity.flac
8dfc20322913956aaa880723e3343b60 *09 Bouncing Around The Room.flac
f1483c398b52ea7cbc7a9e9191bbdf2d *10 Most Events Aren't Planned.flac
1bdb1b440c4ce56f22be8cdceafefbd2 *11 Bug.flac
dff6ced4843e111c1c735bedaa813e78 *12 I Been Around.flac
e5a89f2416839e51d2e29ed3442c153a *13 Izabella.flac
f642b0ceaca2057b9d2093fee483ba35 *14 Tuning.flac
6f7ee0c0b767f0482115a8068fb253f7 *15 Simple.flac
5a28444c5478150b7667f07d8802c37b *16 Rise Come Together.flac
11694b4ee4a4b477e106ae9478fa98e1 *17 Starman.flac
675bc844435a32b12f3470a29a5ed46d *18 You Enjoy Myself.flac
b4a3864f66c441c8c2e15b8a362eb73d *19 Loving Cup.flac
b332f43631cde04ba6e1780b3e7f47ed *20 Encore Break.flac
7b6e189751dc8dfce33cf82148a0068e *21 On The Road Again.flac
ed86382b142cd009c6717ec435a36d35 *22 Lawn Boy Reprise.flac
3f85e54e00c7b6b4cf85bd7033ddddd2 *23 Tweezer Reprise.flac

Comments
Add Comment
Other Sources (comments)
flac16 44.1khz ... (0) flac24 96khz ... (0) flac16 48khz ... (0) flac16 44.1khz ... (0) flac24 48khz ... (0) flac16 44.1khz ... (0) flac16 44.1khz... (0) flac16 44.1khz ... (0) flac24 96khz ... (0) flac24 96khz ... (0) flac24 96khz ... (0) flac24 48khz... (0) flac16 44.1khz ... (1) flac16 44.1khz ... (0) flac16 48kHz Neumann... (0)
Date User Comment