Browse Collections Artists Sources   Search Dates

Add Show    List Management    Help


Phish 07/21/17
Madison Square Garden, New York, NY
Comments Add Comment    Source Collectors    Add to Collection    Add to Want List    History
Source # 139104 Other Sources
Entered by Matt Vernon
Checksums ffp , flac-md5
Disc Counts 0 / 0
Media Size Compressed: 889.99 MB (933220352 bytes)
Date Circulated
Date Added
08/16/2017
08/16/2017
Source Summary flac16 44.1khz Schoeps CMC6/MK4 > Sound Devices 744T (24bit/96k) > Samplitude Pro X3 Suite > FLAC/24. Section 2 Row 1 Seat 20 with the mic stand 9 feet high. Recorded and Mastered By Charlie Miller. 
Source Information - Download Text | Download Zip
Phish - July 21, 2017
Madison Square Garden - New York, NY
Baker's Dozen Show - Coconut

Recording Info:
Schoeps CMC6/MK4 > Sound Devices 744T (24bit/96k) > Samplitude Pro X3 Suite > FLAC/24
(1 DVD FLAC)

Recorded and Mastered By Charlie Miller
[email protected]
August 10, 2017

Notes:
-- Section 2 Row 1 Seat 20 with the mic stand 9 feet high
-- Chris Kuroda allowed me to set up next to him in the lighting booth
-- This is 139090 24 bit -> 16 bit

Set 1:
01 - Tuning
02 - Shake Your Coconut
03 - Martian Monster
04 - Timber
05 - 555
06 - False Start (Jon Fishman)
07 - Pigtail
08 - Halfway To The Moon
09 - Reba
10 - Moonage Daydream
11 - Walls Of The Cave

Set 2:
12 - Tuning
13 - Tweezer
14 - Seven Below
15 - Billy Breathes
16 - Sparkle
17 - Everything's Right
18 - Slave To The Traffic Light
19 - Suzy Greenberg
20 - Coconut

Encore:
21 - Encore Break
22 - The Mango Song
23 - Good Times Bad Times


SHNTOOL OUTPUT:
    length     expanded size    cdr  WAVE problems  fmt   ratio  filename
     0:45.37        8025068 B   ---   --   ---xx   flac  0.4485  01 Tuning.flac
     3:03.19       32325932 B   ---   --   ---xx   flac  0.5857  02 Shake Your Coconuts.flac
     6:04.38       64299020 B   ---   --   ---xx   flac  0.5622  03 Martian Monster.flac
     8:18.03       87854300 B   ---   --   ---xx   flac  0.5202  04 Timber.flac
     7:09.20       75722684 B   ---   --   ---xx   flac  0.5214  05 555.flac
     0:30.36        5376716 B   ---   --   ---xx   flac  0.5133  06 False Start.flac
     7:57.67       84300428 B   ---   --   ---xx   flac  0.5424  07 Pigtail.flac
     8:45.52       92732348 B   ---   --   ---xx   flac  0.5438  08 Halfway To The Moon.flac
    12:52.52      136303148 B   ---   --   ---xx   flac  0.5401  09 Reba.flac
     6:06.73       64734140 B   ---   --   ---xx   flac  0.5845  10 Moonage Daydream.flac
    11:52.28      125662700 B   ---   --   ---xx   flac  0.5487  11 Walls Of The Cave.flac
     0:51.16        9034076 B   ---   --   ---xx   flac  0.4030  12 Tuning.flac
    15:45.39      166789772 B   ---   --   ---xx   flac  0.5520  13 Tweezer.flac
    13:10.71      139523036 B   ---   --   ---xx   flac  0.5488  14 Seven Below.flac
     5:24.60       57294764 B   ---   --   ---xx   flac  0.5242  15 Billy Breathes.flac
     4:08.17       43787228 B   ---   --   ---xx   flac  0.5687  16 Sparkle.flac
    11:46.67      124696028 B   ---   --   ---xx   flac  0.5764  17 Everything's Right.flac
     9:17.44       98358332 B   ---   --   ---xx   flac  0.5361  18 Slave To The Traffic Light.flac
     8:06.37       85817468 B   ---   --   ---xx   flac  0.5687  19 Suzy Greenberg.flac
     2:09.35       22837964 B   ---   --   ---xx   flac  0.5344  20 Coconut.flac
     2:48.44       29738732 B   ---   --   ---xx   flac  0.5111  21 Encore Break.flac
     7:41.70       81485084 B   ---   --   ---xx   flac  0.5595  22 The Mango Song.flac
     5:45.45       60963884 B   ---   --   ---xx   flac  0.5968  23 Good Times Bad times.flac
   160:23.70     1697662852 B                            0.5497  (23 files)


Show Checksums
ffp
01 Tuning.flac:4d417ccfa959f2474f4a826582c9a8bc
02 Shake Your Coconuts.flac:cb51b418be13acff126652cd0560ba1d
03 Martian Monster.flac:f4c96fd329bafbd9fd6a4b4e7968cf5f
04 Timber.flac:6f579a0be90fa1882ba44d4ecdda15af
05 555.flac:669baef8534fcf2eae567e66e56d466d
06 False Start.flac:657378520a3c1d87a4fcfdb10391667b
07 Pigtail.flac:89744e19adbd2b74da16d69bd951e6ca
08 Halfway To The Moon.flac:3b8d3ad62b865f55e00bad9a2792982b
09 Reba.flac:694d34256ecc9a8d3dfc4b5e2ca37c16
10 Moonage Daydream.flac:deba5ef8974feb92060615b7a336c394
11 Walls Of The Cave.flac:43a33b9336593defb216a41d7da6437b
12 Tuning.flac:bd8d41c8a0e4d0349948709daca0cd41
13 Tweezer.flac:2083907fa9e911e436a9727fef09a9e6
14 Seven Below.flac:222aa42bf47938db2bc87d2c5dcbec21
15 Billy Breathes.flac:2128e7ae40893f0ef487d6f627fa29f0
16 Sparkle.flac:b1938bcb995fb7f5b930d8fcd4685ede
17 Everything's Right.flac:5a78d2bbd51e636ca2e3355130d0f835
18 Slave To The Traffic Light.flac:785fd5046d3e2cd38140dbd53277b23e
19 Suzy Greenberg.flac:d7a4451b53ec20b71ca6dcaa983a2c50
20 Coconut.flac:adf22eb38cfa873ad6838cb4625572a7
21 Encore Break.flac:2cf74fd582cfef30bd1690c995d14500
22 The Mango Song.flac:a05afa769434d2360d4ef9db0caae0a4
23 Good Times Bad times.flac:a4ad773ff40c49afc8db9579c2e9f918
flac-md5
1b8a8b2ee4d733414741ca2a41261780 *01 Tuning.flac
ca8640111044cc53cda2515d423c35a3 *02 Shake Your Coconuts.flac
0556147cee5e8a8ea80807f705bce99f *03 Martian Monster.flac
75e0e2b9b50cee11cd79605c84898f53 *04 Timber.flac
b996c4cf006871a90ab3965633dc9d58 *05 555.flac
3012a1ce0b622906661a3e7d87fbef4c *06 False Start.flac
302f6e3d4df00a456c0fc881d265ac1a *07 Pigtail.flac
928035b18be7caefcc85faac3d3e8318 *08 Halfway To The Moon.flac
b71dacd5e1b97ba2d90eb885212b9797 *09 Reba.flac
be161b5b705ed817d793368cfd5b02d0 *10 Moonage Daydream.flac
1eb3bc6853d23499d742ec8b8b7644ad *11 Walls Of The Cave.flac
b42cd14c48b98b68f722a08292c73258 *12 Tuning.flac
9c350f80563de45c3a31bc058fd3a420 *13 Tweezer.flac
d347127526c8590ae61f977db6acb154 *14 Seven Below.flac
18a311d2c2616a3a8f56dea47074f324 *15 Billy Breathes.flac
74d6f9f6203bcdc94d915e162ecbe154 *16 Sparkle.flac
4af795ee0a2ba56b0c3e83c7d756b1c3 *17 Everything's Right.flac
2cbeb44e19a4d41d6625a54cfc770fc4 *18 Slave To The Traffic Light.flac
b22cda460827c7c6cd7201fe49dc1b70 *19 Suzy Greenberg.flac
524dafa47f3702e4374128dedbb2126c *20 Coconut.flac
48c6f186ca979fabf2d5593c2ce5ab64 *21 Encore Break.flac
ac0223413c1ab71180a5230c4b5a5fc7 *22 The Mango Song.flac
9444efe0605861627a7e7ab884b5ed26 *23 Good Times Bad times.flac

Comments
Add Comment
Other Sources (comments)
flac16 44.1khz ... (1) flac24 44.1khz ... (0) flac24 48khz ... (0) flac16 44.1khz ... (0) flac24 96khz Field:... (0) flac24 96khz ... (0) flac16 44.1khz ... (0)
Date User Comment