Browse Collections Artists Sources   Search Dates

Add Show    List Management    Help


Grateful Dead 07/15/89
Deer Creek Music Center, Noblesville, IN
Comments Add Comment    Source Collectors    Add to Collection    Add to Want List    History
Source # 139106 Other Sources
Entered by Matt Vernon
Checksums ffp , flac-md5
Disc Counts 0 / 0
Media Size Compressed: 3.9 GB (4190764869 bytes)
Uncompressed: 5.77 GB (6199030340 bytes)
Date Circulated
Date Added
08/16/2017
08/16/2017
Source Summary flac24; Recording Info: Ultra Matrix SBD > Cassette Master (TDK MA-XG90); Transfer Info: Cassette Master (Nakamichi CR-7A) > Tascam DA-3000 (DSF 1-bit/5.8 MHz) > KORG AudioGate 4 > Samplitude Pro X3 Suite > FLAC/24 
  Archive
Source Information - Download Text | Download Zip
Grateful Dead - July 15, 1989
Deer Creek Music Center - Noblesville, IN

Recording Info:
Ultra Matrix SBD > Cassette Master (TDK MA-XG90)

Transfer Info:
Cassette Master (Nakamichi CR-7A) > Tascam DA-3000 (DSF 1-bit/5.8 MHz) >
KORG AudioGate 4 > Samplitude Pro X3 Suite > FLAC/24
(1 Disc FLAC)

All Transfers and Mastering By Charlie Miller
[email protected]
August 16, 2017

Patch Info:
Nakamichi 300/CP4 > Cassette Master (shnid=125722) supplies:
Drums (0:00 - 1:15)
Sugar Magnolia (0:09 - 0:21)

Set 1:
01 - Tuning
02 - Bertha >
03 - Greatest Story Ever Told
04 - Candyman
05 - Walkin' Blues
06 - Peggy-O
07 - Queen Jane Approximately
08 - We Can Run
09 - Bird Song

Set 2:
10 - Foolish Heart >
11 - Victim Or The Crime >
12 - Crazy Fingers >
13 - Truckin' >
14 - Smokestack Lightnin' >
15 - Drums >
16 - Space >
17 - China Doll >
18 - All Along The Watchtower >
19 - Stella Blue >
20 - Sugar Magnolia

Encore:
21 - Encore Break
22 - Brokedown Palace


SHNTOOL OUTPUT:
    length     expanded size    cdr  WAVE problems  fmt   ratio  filename
     1:39.286      57188774 B   cxx   --   ---xx   flac  0.6561  01 Tuning.flac
     6:58.767     241209896 B   cxx   --   ---xx   flac  0.6845  02 Bertha.flac
     7:04.270     244379576 B   cxx   --   ---xx   flac  0.6646  03 Greatest Story Ever Told.flac
     7:16.035     251156042 B   cxx   --   ---xx   flac  0.6851  04 Candyman.flac
     7:34.121     261573620 B   cxx   --   ---xx   flac  0.6885  05 Walkin' Blues.flac
     8:18.536     287156900 B   cxx   --   ---xx   flac  0.6866  06 Peggy-O.flac
     7:49.848     270632618 B   cxx   --   ---xx   flac  0.6762  07 Queen Jane Approximately.flac
     5:50.405     201833522 B   cxx   --   ---xx   flac  0.6832  08 We Can Run.flac
    14:01.609     484766636 B   cxx   --   ---xx   flac  0.6743  09 Bird Song.flac
    11:05.707     383447150 B   cxx   --   ---xx   flac  0.6928  10 Foolish Heart.flac
     7:42.016     266121254 B   cxx   --   ---xx   flac  0.6779  11 Victim Or The Crime.flac
     9:21.049     323164508 B   cxx   --   ---xx   flac  0.6918  12 Crazy Fingers.flac
     8:09.249     281807510 B   cxx   --   ---xx   flac  0.6863  13 Truckin'.flac
    10:29.833     362783984 B   cxx   --   ---xx   flac  0.6710  14 Smokestack Lightning.flac
     8:33.588     295826906 B   cxx   --   ---xx   flac  0.6415  15 Drums.flac
    16:44.975     578865866 B   cxx   --   ---xx   flac  0.6495  16 Space.flac
     7:10.745     248109098 B   cxx   --   ---xx   flac  0.6830  17 China Doll.flac
     6:55.154     239128892 B   cxx   --   ---xx   flac  0.6892  18 All Along The Watchtower.flac
     8:30.067     293798558 B   cxx   --   ---xx   flac  0.6807  19 Stella Blue.flac
     9:25.913     325966202 B   cxx   --   ---xx   flac  0.6806  20 Sugar Magnolia.flac
     1:32.033      53011190 B   cxx   --   ---xx   flac  0.6377  21 Encore Break.flac
     7:08.996     247101638 B   cxx   --   ---xx   flac  0.6741  22 Brokedown Palace.flac
   179:22.204    6199030340 B                            0.6760  (22 files)



Show Checksums
ffp
01 Tuning.flac:4a31928398841a2f29697d1e6a9f503e
02 Bertha.flac:8f355dcca248bdd1aca556812f2f4c1c
03 Greatest Story Ever Told.flac:05b529c6c41884e6cfb7c42d04ae612a
04 Candyman.flac:0c7864a1c239398425fde078706d802c
05 Walkin' Blues.flac:3f300f574f239d3ad0133b49f2f6c680
06 Peggy-O.flac:db43c7ac55f19d95aae6cb01b5e9ad45
07 Queen Jane Approximately.flac:4532173f9ec4aee6015d42107d3bb23d
08 We Can Run.flac:6cbda58ae432f6e2fa0c021211237344
09 Bird Song.flac:e4227895f0905c48a0d5d3568a6aa10b
10 Foolish Heart.flac:929cbbfdb36900134bb55a4d99a8f927
11 Victim Or The Crime.flac:f8d352027f6bfc00317db5dc0cb5f353
12 Crazy Fingers.flac:c5614ce5d5453a2c4179e42702d03e66
13 Truckin'.flac:4b8a8715723d405626f5184604be3098
14 Smokestack Lightning.flac:8c217a59a67e5d121b999bf0f2063832
15 Drums.flac:614b522e2f788c65aa56c1cfce3b52ad
16 Space.flac:76fc25783321f7e33c33a3b9126f8f42
17 China Doll.flac:44de26646fe72999a977599c78f5c642
18 All Along The Watchtower.flac:241bc5f41393d95274a4f56e5b52fd0a
19 Stella Blue.flac:77d43da0a6776f2feb263d2409aaa775
20 Sugar Magnolia.flac:78c689761988003086fd448f387915ec
21 Encore Break.flac:8c5e8ee5962be9dba1f2f253764ee852
22 Brokedown Palace.flac:a05ae2774b1a6eb04e5034279e313b6c
flac-md5
eca60c43b3738185071476899db3ef93 *01 Tuning.flac
a1bdf9580aa0f4fb6dac13d4de017440 *02 Bertha.flac
a65dd0d621a99469aaab9d6f4a4dcfd9 *03 Greatest Story Ever Told.flac
f2b9b90bb15b4337873044d308778554 *04 Candyman.flac
ab02eae2f25a68b9425b0e56b19ed870 *05 Walkin' Blues.flac
0b7dcd2539ad5d818a5df29851404598 *06 Peggy-O.flac
178d308b60235d59fdac666371903467 *07 Queen Jane Approximately.flac
511d18bcbd0ba7703633213c97317b67 *08 We Can Run.flac
b21dc67ee6f3842d6b5209606554a8b8 *09 Bird Song.flac
686e56e5141f2aa06ceb78aedd50bce6 *10 Foolish Heart.flac
1bb9517d00f54b81c814b58c1f886777 *11 Victim Or The Crime.flac
b59b7bd17675e8e265ac13c4fe0330e2 *12 Crazy Fingers.flac
c8bc851ce5064b59dcd3efe023109b9f *13 Truckin'.flac
361446812d17d83e8592bfbea20ccd0a *14 Smokestack Lightning.flac
58429c7f199b14b8e161342f0965bc36 *15 Drums.flac
6938fce78a6b2497eb8290905f876573 *16 Space.flac
7e2ed2107c80099ca4e13b999bbf81b1 *17 China Doll.flac
82877dc3d8337c99e06b2be2e728ad2a *18 All Along The Watchtower.flac
6506809e19cb6dcb7a1ff62ad186acc6 *19 Stella Blue.flac
54761ec720f5ebf0cf89487abecc2ea2 *20 Sugar Magnolia.flac
61c0dc54f5c78cb90d6916b1a4bb72aa *21 Encore Break.flac
3b8bde007e126232c1f12bfc1fdada78 *22 Brokedown Palace.flac

Comments
Add Comment
Other Sources (comments)
SBD > MR > DAT > C > DAT >... (2) flac16; Source:... (0) flac16; Recording... (0) flac16; Source:... (2) flac16; Taper: Greg... (0) flac16; Recorded by... (0) flac16; Recorded &... (0) flac24; Master... (0) flac16; Master... (0) flac16; Recording... (0) flac16; source: aud... (0) flac24; source: aud... (0) flac24/96 Source... (0)
Date User Comment