Browse Collections Artists Sources   Search Dates

Add Show    List Management    Help


Grateful Dead 07/15/89
Deer Creek Music Center, Noblesville, IN
Comments Add Comment    Source Collectors    Add to Collection    Add to Want List    History
Source # 139107 Other Sources
Entered by Matt Vernon
Checksums ffp , flac-md5
Disc Counts 0 / 0
Media Size Compressed: 1.13 GB (1213169664 bytes)
Uncompressed: 1.77 GB (1898455400 bytes)
Date Circulated
Date Added
08/17/2017
08/17/2017
Source Summary flac16; Recording Info: Ultra Matrix SBD > Cassette Master (TDK MA-XG90); Transfer Info: Cassette Master (Nakamichi CR-7A) > Tascam DA-3000 (DSF 1-bit/5.8 MHz) > KORG AudioGate 4 > Samplitude Pro X3 Suite > FLAC/24, This is 139106 24 bit -> 16 bit 
  Archive
Source Information - Download Text | Download Zip
Grateful Dead - July 15, 1989
Deer Creek Music Center - Noblesville, IN

Recording Info:
Ultra Matrix SBD > Cassette Master (TDK MA-XG90)

Transfer Info:
Cassette Master (Nakamichi CR-7A) > Tascam DA-3000 (DSF 1-bit/5.8 MHz) >
KORG AudioGate 4 > Samplitude Pro X3 Suite > FLAC/24
(1 Disc FLAC)

All Transfers and Mastering By Charlie Miller
[email protected]
August 16, 2017

Patch Info:
Nakamichi 300/CP4 > Cassette Master (shnid=125722) supplies:
Drums (0:00 - 1:15)
Sugar Magnolia (0:09 - 0:21)

Notes:
-- This is 139106 24 bit -> 16 bit

Set 1:
01 - Tuning
02 - Bertha >
03 - Greatest Story Ever Told
04 - Candyman
05 - Walkin' Blues
06 - Peggy-O
07 - Queen Jane Approximately
08 - We Can Run
09 - Bird Song

Set 2:
10 - Foolish Heart >
11 - Victim Or The Crime >
12 - Crazy Fingers >
13 - Truckin' >
14 - Smokestack Lightnin' >
15 - Drums >
16 - Space >
17 - China Doll >
18 - All Along The Watchtower >
19 - Stella Blue >
20 - Sugar Magnolia

Encore:
21 - Encore Break
22 - Brokedown Palace


SHNTOOL OUTPUT:
    length     expanded size    cdr  WAVE problems  fmt   ratio  filename
     1:39.21       17513036 B   ---   --   ---xx   flac  0.5410  01 Tuning.flac
     6:58.57       73869308 B   ---   --   ---xx   flac  0.6579  02 Bertha.flac
     7:04.21       74843036 B   ---   --   ---xx   flac  0.5914  03 Greatest Story Ever Told.flac
     7:16.02       76915148 B   ---   --   ---xx   flac  0.6458  04 Candyman.flac
     7:34.09       80106812 B   ---   --   ---xx   flac  0.6483  05 Walkin' Blues.flac
     8:18.41       87943676 B   ---   --   ---xx   flac  0.6458  06 Peggy-O.flac
     7:49.63       82879820 B   ---   --   ---xx   flac  0.6479  07 Queen Jane Approximately.flac
     5:50.31       61812956 B   ---   --   ---xx   flac  0.6705  08 We Can Run.flac
    14:01.45      148458284 B   ---   --   ---xx   flac  0.6563  09 Bird Song.flac
    11:05.53      117430700 B   ---   --   ---xx   flac  0.6881  10 Foolish Heart.flac
     7:42.01       81499196 B   ---   --   ---xx   flac  0.6588  11 Victim Or The Crime.flac
     9:21.04       98969852 B   ---   --   ---xx   flac  0.6703  12 Crazy Fingers.flac
     8:09.19       86304332 B   ---   --   ---xx   flac  0.6895  13 Truckin'.flac
    10:29.62      111101468 B   ---   --   ---xx   flac  0.6416  14 Smokestack Lightning.flac
     8:33.44       90596732 B   ---   --   ---xx   flac  0.5321  15 Drums.flac
    16:44.74      177279692 B   ---   --   ---xx   flac  0.5506  16 Space.flac
     7:10.56       75983756 B   ---   --   ---xx   flac  0.6618  17 China Doll.flac
     6:55.11       73231916 B   ---   --   ---xx   flac  0.6899  18 All Along The Watchtower.flac
     8:30.05       89975804 B   ---   --   ---xx   flac  0.6438  19 Stella Blue.flac
     9:25.69       99828332 B   ---   --   ---xx   flac  0.6729  20 Sugar Magnolia.flac
     1:32.02       16233548 B   ---   --   ---xx   flac  0.5281  21 Encore Break.flac
     7:09.01       75677996 B   ---   --   ---xx   flac  0.6328  22 Brokedown Palace.flac
   179:22.16     1898455400 B                            0.6390  (22 files)




Show Checksums
ffp
01 Tuning.flac:3e84329284e8a359ab18b091a7639f5d
02 Bertha.flac:320b27b8eb9711715ff87c29f3e5f9eb
03 Greatest Story Ever Told.flac:7f3ca7f6bb67eea4e31bd2fa60b84a78
04 Candyman.flac:e2dcf9856255e0e494af0a31c1cc5cb6
05 Walkin' Blues.flac:ddb6b9290e4b951dc33e501a1cd6fd0c
06 Peggy-O.flac:0c97ead90dc258608c034c9bcd83a63d
07 Queen Jane Approximately.flac:79535247abc76f1aabcfc801b2f21ab4
08 We Can Run.flac:b9e5a4550b2ed66a60e7e2a56f55edc2
09 Bird Song.flac:bbb8ad25df4f907caab32b994975808a
10 Foolish Heart.flac:d9f14977e7381665952bece3359d322d
11 Victim Or The Crime.flac:29cd40906183ee9b5d84f0699c2a4833
12 Crazy Fingers.flac:3035e5940b05f904b1082fbc36936733
13 Truckin'.flac:93656531b633b405367ac29a30530afb
14 Smokestack Lightning.flac:f298044044780690b8409d6998e8e9c6
15 Drums.flac:d32caa86bddcb22627b8cc9d279d8329
16 Space.flac:474743338d265b7d0f71f92afb84c948
17 China Doll.flac:79b24a11d1d5d2de6d4d3e9ca03b820f
18 All Along The Watchtower.flac:ba5fc72199c4ee5c673e8f5c240c1a38
19 Stella Blue.flac:3cfcdb475f720d1e4f6b92f0cdc7124d
20 Sugar Magnolia.flac:2719adf5c331cf0a9deab5f76cbc9942
21 Encore Break.flac:9e6b0e155a876879b953b032b2f26215
22 Brokedown Palace.flac:a724307dd96983a05c594786e0c85f6a
flac-md5
8a65ddfa6a8f9f85dab87bf9e46a96b9 *01 Tuning.flac
22d039a28e21db29088bf1eb76fc2f7b *02 Bertha.flac
77b69918ab2b98d3bc3df78226e0360a *03 Greatest Story Ever Told.flac
7e821ad4adb56d43700c2d8c9e28629e *04 Candyman.flac
5241ff432ce3535b8203d48c516027fd *05 Walkin' Blues.flac
d18f9bd546a0f4f750715db5a72cda0e *06 Peggy-O.flac
6b93ab1893b658e7762011448ccf1781 *07 Queen Jane Approximately.flac
0d470b92e7f8f923f8884aa5486216ef *08 We Can Run.flac
c8d55d89dd24680fd91ca1ad3077cc4f *09 Bird Song.flac
fafb91c3c295f0e26166b6aef1faa24b *10 Foolish Heart.flac
1bbfab0e77fb5fba4ba700f81291e63d *11 Victim Or The Crime.flac
8c94cc24e706a08b4963c270c189e296 *12 Crazy Fingers.flac
8d7a0d93698681024b093b42e9542ea6 *13 Truckin'.flac
3a119e7ac69b3edd8c3efb3db6ca3f1a *14 Smokestack Lightning.flac
f07fa0368362cbf0f21b71e7fe32e2c1 *15 Drums.flac
12e158e5afd42eeb41bba72f36fac2f8 *16 Space.flac
0d1b1f58a9d60232210a52b0feb29771 *17 China Doll.flac
a1682a5d26ee994ee1232ed23589ceb4 *18 All Along The Watchtower.flac
c4b43bfb8ad83c4ca8cb47357f75c5c8 *19 Stella Blue.flac
aafce6df1e457683ef9ee43dac70e698 *20 Sugar Magnolia.flac
c16545ae1e2b8bf7bbb38a15fd008990 *21 Encore Break.flac
c72f63678ce6356c5c09d9a473641463 *22 Brokedown Palace.flac

Comments
Add Comment
Other Sources (comments)
SBD > MR > DAT > C > DAT >... (2) flac16; Source:... (0) flac16; Recording... (0) flac16; Source:... (2) flac16; Taper: Greg... (0) flac16; Recorded by... (0) flac16; Recorded &... (0) flac24; Master... (0) flac16; Master... (0) flac24; Recording... (0) flac16; source: aud... (0) flac24; source: aud... (0) flac24/96 Source... (0)
Date User Comment