Browse Collections Artists Sources   Search Dates

Add Show    List Management    Help


Phish 07/22/17
Madison Square Garden, New York, NY
Comments Add Comment    Source Collectors    Add to Collection    Add to Want List    History
Source # 139113 Other Sources
Entered by Matt Vernon
Checksums flac-md5 , ffp
Disc Counts 0 / 0
Media Size Compressed: 931.41 MB (976650240 bytes)
Date Circulated
Date Added
08/17/2017
08/17/2017
Source Summary flac16 44.1khz Schoeps CMC6/MK4 > Sound Devices 744T (24bit/96k) > Samplitude Pro X3 Suite > FLAC/24. Section 2 Row 1 Seat 20 with the mic stand 9 feet high. Recorded and Mastered By Charlie Miller. 
Source Information - Download Text | Download Zip
Phish - July 22, 2017
Madison Square Garden - New York, NY
Baker's Dozen Show 2 - Strawberry

Recording Info:
Schoeps CMC6/MK4 > Sound Devices 744T (24bit/96k) > Samplitude Pro X3 Suite > FLAC/24
(1 DVD FLAC)

Recorded and Mastered By Charlie Miller
[email protected]
August 10, 2017

Notes:
-- Section 2 Row 1 Seat 20 with the mic stand 9 feet high
-- Chris Kuroda allowed me to set up next to him in the lighting booth
-- This is 139091 24 bit -> 16 bit

Set 1:
01 - Tuning
02 - Strawberry Fields Forever
03 - Halley's Comet
04 - The Moma Dance
05 - Breath And Burning
06 - Funky Bitch
07 - Mound
08 - Foam
09 - Roggae
10 - The Squirming Coil

Set 2:
11 - Tuning
12 - Down With Disease
13 - Strawberry Letter 23
14 - Birds Of A Feather
15 - I Always Wanted It This Way
16 - All OF These Dreams
17 - Split Open And Melt
18 - Down With Disease
19 - Shine A Light

Encore:
20 - Encore Break
21 - Peaches En Regalia
22 - Cities
23 - My Sweet One


SHNTOOL OUTPUT:
    length     expanded size    cdr  WAVE problems  fmt   ratio  filename
     1:08.09       12016412 B   ---   --   ---xx   flac  0.5424  01 Tuning.flac
     4:14.67       44963228 B   ---   --   ---xx   flac  0.5103  02 Strawberry Fields Forever.flac
     6:23.05       67573004 B   ---   --   ---xx   flac  0.5465  03 Halley's Comet.flac
    17:30.09      185241212 B   ---   --   ---xx   flac  0.5557  04 The Moma Dance.flac
    10:08.06      107265356 B   ---   --   ---xx   flac  0.5358  05 Breath And Burning.flac
     7:08.55       75628604 B   ---   --   ---xx   flac  0.5699  06 Funky Bitch.flac
     6:18.06       66693356 B   ---   --   ---xx   flac  0.5783  07 Mound.flac
     8:49.45       93421484 B   ---   --   ---xx   flac  0.5335  08 Foam.flac
    10:25.13      110280620 B   ---   --   ---xx   flac  0.5419  09 Roggae.flac
    11:19.32      119850908 B   ---   --   ---xx   flac  0.5195  10 The Squirming Coil.flac
     0:59.27       10471148 B   ---   --   ---xx   flac  0.4205  11 Tuning.flac
    18:50.70      199496684 B   ---   --   ---xx   flac  0.5550  12 Down With Disease.flac
     5:20.14       56480972 B   ---   --   ---xx   flac  0.5555  13 Strawberry Letter 23.flac
     6:30.23       68850140 B   ---   --   ---xx   flac  0.5618  14 Birds Of A Feather.flac
     9:58.62      105633068 B   ---   --   ---xx   flac  0.5905  15 I Always Wanted It This Way.flac
     4:14.07       44822108 B   ---   --   ---xx   flac  0.5015  16 All Of These Dreams.flac
    11:16.69      119408732 B   ---   --   ---xx   flac  0.5681  17 Split Open And Melt.flac
     7:01.49       74379692 B   ---   --   ---xx   flac  0.5836  18 Down With Disease.flac
     4:21.18       46082780 B   ---   --   ---xx   flac  0.5500  19 Shine A Light.flac
     3:08.73       33334940 B   ---   --   ---xx   flac  0.4757  20 Encore Break.flac
     3:28.55       36820604 B   ---   --   ---xx   flac  0.5652  21 Peaches En Regalia.flac
     4:44.41       50194076 B   ---   --   ---xx   flac  0.5706  22 Cities.flac
     4:00.60       42477164 B   ---   --   ---xx   flac  0.5730  23 My Sweet One.flac
   167:21.65     1771386292 B                            0.5513  (23 files)




Show Checksums
flac-md5
89c051c8dd2cd9d8931871f462ea9155 *01 Tuning.flac
192948638d38f5d3dd088ed4f91ea0e3 *02 Strawberry Fields Forever.flac
416f3fc332a63148f7d5dd60f59d786f *03 Halley's Comet.flac
1b92a4f5ecaed63c909bcd31892b549e *04 The Moma Dance.flac
effabdd7773a66ab4110c1185bf6d1c6 *05 Breath And Burning.flac
ff04f02f4f81e6dac6d75d8c673a3d1b *06 Funky Bitch.flac
8502483bbdc5cbbf439a697a3e93b7bd *07 Mound.flac
ab7cb0227d76eec8c00622f18ef6c2e2 *08 Foam.flac
11c7325b45599e814f5bf72222004e24 *09 Roggae.flac
1c4370db1fab297a22c8d438c8c56bcf *10 The Squirming Coil.flac
4a2c635b39a91967978de979f3fa93d4 *11 Tuning.flac
b64cb2e9c04a648c037a302b296b4d4a *12 Down With Disease.flac
a579ba4a7b4eb5407d48617a476ff21d *13 Strawberry Letter 23.flac
3e60f45d757ffab62e037d1afc237403 *14 Birds Of A Feather.flac
3e115de821073163be9497c86d98f150 *15 I Always Wanted It This Way.flac
491eb3cad0581b97bc4bacb3450be109 *16 All Of These Dreams.flac
16117ced07dec04ee59f1a10f2fc2864 *17 Split Open And Melt.flac
cb3dce833778d174bb68cb0cb428ed8b *18 Down With Disease.flac
aaa5f380eb3e771f6bb1ca1fc0ea0760 *19 Shine A Light.flac
f5e052c529853c9066b7589387c2474a *20 Encore Break.flac
382f96846ae4f087c3fef8ef55a9398c *21 Peaches En Regalia.flac
4a2f8c41df353ef5247d9e32da556e15 *22 Cities.flac
6b7d2fa4e11b61916af7bc9fe906e75e *23 My Sweet One.flac
ffp
01 Tuning.flac:1e9d2b86dc5ddb89f6c6a02b1f636c5a
02 Strawberry Fields Forever.flac:06acc9b423a165beb1e1a032bbd35f81
03 Halley's Comet.flac:e911bf55a3b2f4b003ffcde85c59e102
04 The Moma Dance.flac:5e78bcccc06e9aebffc1b702fa3de35b
05 Breath And Burning.flac:bafaebba90bf943bdcbdac05b90b2d3d
06 Funky Bitch.flac:258c58b7e7ff138ebd0ecb857a10da55
07 Mound.flac:9493c04ba5c727fdc4da1c37bc6c5494
08 Foam.flac:f09229cc39aede00b78b9b76f2f22f1c
09 Roggae.flac:360a98dbcc9da020edde1b0df7a02e46
10 The Squirming Coil.flac:dd70f2ce63b93ea901587254eb16f233
11 Tuning.flac:c1a7810185c9453381958d481f5f2f64
12 Down With Disease.flac:c85831c9abf621fad85b54f3af17a87b
13 Strawberry Letter 23.flac:f02a77263f67473bedf02c75d4ee2170
14 Birds Of A Feather.flac:1ff02e0232fa867bf2a8f5dcbf9b7911
15 I Always Wanted It This Way.flac:78691d971adf5bce4d3b6be1e84d15b6
16 All Of These Dreams.flac:1b60e8eb5b08af85f0e7d1f0dd6bd9d2
17 Split Open And Melt.flac:a79dddfc8e84b4fdf6b47a852a60b85f
18 Down With Disease.flac:e5a3dd4e938495814ab61e9b468593a5
19 Shine A Light.flac:9e848d3e6353cfe5f4ccf8ed69312718
20 Encore Break.flac:454ab5f5cc3440913e36ff17c65c7d67
21 Peaches En Regalia.flac:f312428f794f4cd26f7154bd71e68b0f
22 Cities.flac:815bdffda01a72ca6495a2d844ecb49c
23 My Sweet One.flac:4024bacab52596a782d2edbd192ecdfd

Comments
Add Comment
Other Sources (comments)
flac16 44.1khz... (0) flac24 48khz ... (0) flac16 44.1khz DPA... (0) flac24 96khz DPA... (0) flac16 44.1khz ... (1) flac24 96khz ... (0) flac24 96khz ... (0)
Date User Comment