Browse Collections Artists Sources   Search Dates

Add Show    List Management    Help


Phish 07/23/17
Madison Square Garden, New York, NY
Comments Add Comment    Source Collectors    Add to Collection    Add to Want List    History
Source # 139121 Other Sources
Entered by Matt Vernon
Checksums ffp , flac-md5
Disc Counts 0 / 0
Media Size Compressed: 829.92 MB (870236160 bytes)
Date Circulated
Date Added
08/19/2017
08/19/2017
Source Summary flac16 44.1khz Schoeps CMC6/MK4 > Sound Devices 744T (24bit/96k) > Samplitude Pro X3 Suite > FLAC/24. Section 2 Row 1 Seat 20 with the mic stand 9 feet high. Recorded and Mastered By Charlie Miller. 
Source Information - Download Text | Download Zip
Phish - July 23, 2017
Madison Square Garden - New York, NY
Baker's Dozen Show 3 - Red Velvet

Recording Info:
Schoeps CMC6/MK4 > Sound Devices 744T (24bit/96k) > Samplitude Pro X3 Suite > FLAC/24
(1 DVD FLAC)

Recorded and Mastered By Charlie Miller
[email protected]
August 12, 2017

Notes:
-- Section 2 Row 1 Seat 20 with the mic stand 9 feet high
-- Chris Kuroda allowed me to set up next to him in the lighting booth
-- This is 139092 24 bit -> 16 bit

Set 1:
01 - Tuning
02 - Sunday Morning
03 - Axilla I
04 - Your Pet Cat
05 - Back On The Train
06 - How Many People Are You?
07 - Glide
08 - Theme From The Bottom
09 - It's Ice
10 - More

Set 2:
11 - Tuning
12 - AC/DC Bag
13 - Wolfman's Brother
14 - Twist
15 - Waves
16 - Miss You
17 - Boogie On Reggae Woman
18 - Wading In The Velvet Sea

Encore:
19 - Encore Break
20 - Sweet Jane


SHNTOOL OUTPUT:
    length     expanded size    cdr  WAVE problems  fmt   ratio  filename
     1:23.50       14758844 B   ---   --   ---xx   flac  0.5272  01 Tuning.flac
     5:26.58       57642860 B   ---   --   ---xx   flac  0.5195  02 Sunday Morning.flac
     3:26.41       36434876 B   ---   --   ---xx   flac  0.5713  03 Axilla I.flac
     5:32.14       58597772 B   ---   --   ---xx   flac  0.5615  04 Your Pet Cat.flac
    10:59.59      116386412 B   ---   --   ---xx   flac  0.5368  05 Back On The Train.flac
     9:20.37       98871068 B   ---   --   ---xx   flac  0.5480  06 How Many People Are You.flac
     4:43.03       49928300 B   ---   --   ---xx   flac  0.5283  07 Glide.flac
     9:25.57       99800108 B   ---   --   ---xx   flac  0.5357  08 Theme From The Bottom.flac
    15:10.06      160538156 B   ---   --   ---xx   flac  0.5303  09 It's Ice.flac
     7:47.46       82487036 B   ---   --   ---xx   flac  0.5387  10 More.flac
     0:52.07        9189308 B   ---   --   ---xx   flac  0.3797  11 Tuning.flac
     7:30.07       79396508 B   ---   --   ---xx   flac  0.5301  12 AC DC Bag.flac
    14:53.73      157696940 B   ---   --   ---xx   flac  0.5076  13 Wolfman's Brother.flac
    16:02.16      169734476 B   ---   --   ---xx   flac  0.5299  14 Twist.flac
    11:10.52      118310348 B   ---   --   ---xx   flac  0.5123  15 Waves.flac
     7:37.30       80685404 B   ---   --   ---xx   flac  0.5001  16 Miss You.flac
     7:50.31       82980956 B   ---   --   ---xx   flac  0.5555  17 Boogie On Reggae Woman.flac
     7:39.12       80995868 B   ---   --   ---xx   flac  0.5201  18 Wading In The Velvet Sea.flac
     2:46.02       29287148 B   ---   --   ---xx   flac  0.4211  19 Encore Break.flac
     5:56.20       62845484 B   ---   --   ---xx   flac  0.5644  20 Sweet Jane.flac
   155:34.21     1646567872 B                            0.5284  (20 files)



Show Checksums
ffp
01 Tuning.flac:55c62e9ad3b432ebfd2f7a09b6955425
02 Sunday Morning.flac:51f68e15e681d2225767c114935e9e40
03 Axilla I.flac:8601b81567d65fa25a2c17f1dc1bac38
04 Your Pet Cat.flac:fecf821b019ccfd146bf8217c287614a
05 Back On The Train.flac:a33330f9140c4e70438d7fd87f41588f
06 How Many People Are You.flac:906e8142f51b244e11874033cd294dd4
07 Glide.flac:ea51abe9c35980ccc9b27d9e9f37c2f2
08 Theme From The Bottom.flac:880330385ee675c4e9cee5f8f6a867f6
09 It's Ice.flac:d44a90af92900276d296a79167cedb1e
10 More.flac:e39c5b1202c650bc31cf6c84b5261f27
11 Tuning.flac:0adfdc491a47f3c174da1fa199d14727
12 AC DC Bag.flac:6a13d73c341875f65a582f34ed87db49
13 Wolfman's Brother.flac:eae57bbbf1bfd285a91f1c766690580a
14 Twist.flac:4304ec49343ca141dd9d69a4089cbbf8
15 Waves.flac:dd4ab8bd7de5777ed4419555e57611d6
16 Miss You.flac:6ea472b154a811e2ab487987e99e109f
17 Boogie On Reggae Woman.flac:0d683044a27447b56713271e24850310
18 Wading In The Velvet Sea.flac:175608ade762f97a1d920ccbce92c488
19 Encore Break.flac:21abc4220c52c1789eb2787a16438b00
20 Sweet Jane.flac:d750a083ce81972af4432dce9d4fd395
flac-md5
0c86a8f615020bff73ca97ecff5417f6 *01 Tuning.flac
90caf758804f8e6e1ea1981e86422955 *02 Sunday Morning.flac
01e55a582e648a075615f777266fb7bc *03 Axilla I.flac
b5b3bf62e542c0c1e24a65ba82831743 *04 Your Pet Cat.flac
510aa34ca5cc0115f4c1dd921bd4591c *05 Back On The Train.flac
3dff207d79f5587ecccb4d48477c4bb5 *06 How Many People Are You.flac
003fbac67b16b3ab849c275ef9e55518 *07 Glide.flac
459afd57e454b027b54081bf94ba49a5 *08 Theme From The Bottom.flac
b01654931023bb2161685da7f970d065 *09 It's Ice.flac
f7f1ab663be2c32cba67398afbb3102a *10 More.flac
e9dfa9dbe6152bdb3cac558cf930287a *11 Tuning.flac
a1f8b6e139f78ef515db5351800210a3 *12 AC DC Bag.flac
d8ee1390aee96ea8a54692c9e16f95ec *13 Wolfman's Brother.flac
d0e8551f881f817c6f3105a6f8e14bc3 *14 Twist.flac
c9563232c42dcdaa1a255b9a9849150d *15 Waves.flac
c1577d396a90bda5e8f656279aa3f7c3 *16 Miss You.flac
d07e091d8061f6b820017496d17df898 *17 Boogie On Reggae Woman.flac
5f64352274b6e1a5fa7e44f216de9bce *18 Wading In The Velvet Sea.flac
39769c9b82fe0ae28fb3fc7635e388f3 *19 Encore Break.flac
31d58b9bbcb1e77d9a12b52b2b684a26 *20 Sweet Jane.flac

Comments
Add Comment
Other Sources (comments)
flac16 44.1khz ... (0) flac16 44.1khz ... (0) flac24 48khz ... (0) flac24 48khz ... (0) flac16 44.1khz ... (0) flac16 44.1khz ... (0) flac24 48khz... (0) flac24 48khz... (0) flac24 48khz... (0) flac16 44.1khz ... (0) flac24 96khz... (0) flac16 48khz Field:... (0) flac24 96khz ... (0) flac16 44.1khz ... (1)
Date User Comment