Browse Collections Artists Sources   Search Dates

Add Show    List Management    Help


Phish 07/25/17
Madison Square Garden, New York, NY
Comments Add Comment    Source Collectors    Add to Collection    Add to Want List    History
Source # 139146 Other Sources
Entered by Matt Vernon
Checksums flac-md5 , ffp
Disc Counts 0 / 0
Media Size Compressed: 892.69 MB (936054784 bytes)
Date Circulated
Date Added
07/24/2017
08/24/2017
Source Summary flac16 44.1khz Schoeps CMC6/MK4 > Sound Devices 744T (24bit/96k) > Samplitude Pro X3 Suite > FLAC/24. Section 2 Row 1 Seat 20 with the mic stand 9 feet high. Recorded and Mastered By Charlie Miller. 
Source Information - Download Text | Download Zip
Phish - July 25, 2017
Madison Square Garden - New York, NY
Baker's Dozen Show 4 - Jam Filled

Recording Info:
Schoeps CMC6/MK4 > Sound Devices 744T (24bit/96k) > Samplitude Pro X3 Suite > FLAC/24
(1 DVD FLAC)

Recorded and Mastered By Charlie Miller
[email protected]
August 12, 2017

Notes:
-- Section 2 Row 1 Seat 20 with the mic stand 9 feet high
-- Chris Kuroda allowed me to set up next to him in the lighting booth
-- This is 139093 24 -> 16 bit

Set 1:
01 - Tuning
02 - Sample In A Jar
03 - Lawn Boy
04 - My Friend My Friend
05 - Stash
06 - Bathtub Gin

Set 2:
07 - Tuning
08 - Fuego
09 - Thread
10 - Crosseyed And Painless
11 - Makisupa Policeman
12 - End Of Session
13 - Tuesday
14 - Cavern

Encore:
15 - Encore Break
16 - Julius
17 - Lawn Boy


SHNTOOL OUTPUT:
    length     expanded size    cdr  WAVE problems  fmt   ratio  filename
     0:43.64        7735772 B   ---   --   ---xx   flac  0.4603  01 Tuning.flac
     9:53.32      104680508 B   ---   --   ---xx   flac  0.5440  02 Sample In A Jar.flac
    30:00.51      317639996 B   ---   --   ---xx   flac  0.5278  03 Lawn Boy.flac
    11:37.55      123080204 B   ---   --   ---xx   flac  0.5052  04 My Friend My Friend.flac
    11:22.30      120375404 B   ---   --   ---xx   flac  0.5118  05 Stash.flac
    13:23.68      141809180 B   ---   --   ---xx   flac  0.5320  06 Bathtub Gin.flac
     1:06.70       11807084 B   ---   --   ---xx   flac  0.3692  07 Tuning.flac
    19:00.33      201173660 B   ---   --   ---xx   flac  0.5230  08 Fuego.flac
     6:47.29       71863052 B   ---   --   ---xx   flac  0.5233  09 Thread.flac
    33:06.40      350424524 B   ---   --   ---xx   flac  0.5075  10 Crosseyed And Painless.flac
     4:09.60       44064764 B   ---   --   ---xx   flac  0.5089  11 Makisupa Policeman.flac
     3:35.39       38017772 B   ---   --   ---xx   flac  0.4817  12 End Of Session.flac
     7:00.43       74189180 B   ---   --   ---xx   flac  0.5706  13 Tuesday.flac
     4:49.31       51052556 B   ---   --   ---xx   flac  0.5714  14 Cavern.flac
     2:13.25       23520044 B   ---   --   ---xx   flac  0.4367  15 Encore Break.flac
     8:54.56       94329356 B   ---   --   ---xx   flac  0.5405  16 Julius.flac
     1:59.09       21012812 B   ---   --   ---xx   flac  0.4814  17 Lawn Boy.flac
   169:45.60     1796775868 B                            0.5209  (17 files)



Show Checksums
flac-md5
db7ebd3543f6d42a50a141aa4ec15bd5 *01 Tuning.flac
98097643c1b4856e8c43334aa438efed *02 Sample In A Jar.flac
f5b4fd91b075a82ca1483344a5c10710 *03 Lawn Boy.flac
9b91f7f8fb51797217988b5f4da3748a *04 My Friend My Friend.flac
b5e998b41e501d226ba417419df7ec9f *05 Stash.flac
276561990a29cfb0da8453ef3290e632 *06 Bathtub Gin.flac
f7a23add9966e2b238f2db62134dc8c3 *07 Tuning.flac
ecefc8b6e49de03bc51b68e687be5efb *08 Fuego.flac
decbcdaa84c6072befcf5db99f56cbce *09 Thread.flac
ff12f239c63617cb42622a9661aee399 *10 Crosseyed And Painless.flac
a5452e09b60a1e0f7d0a0d4ba8b0445a *11 Makisupa Policeman.flac
237e552fe95e86746cf4e98294492172 *12 End Of Session.flac
272510a50d078b03a8c51a5762b0b8fe *13 Tuesday.flac
590a5d60df89da1bcfc967592e602b44 *14 Cavern.flac
a47d0824f9cdc986f247f55f3495421c *15 Encore Break.flac
aaae0953ca149c166da1828478bbdf39 *16 Julius.flac
9c312dd620168aee279e28917f1bccb5 *17 Lawn Boy.flac
ffp
01 Tuning.flac:3b0279a5918f69d59637be5deab0eb5f
02 Sample In A Jar.flac:b2534a94a02ac165f17bc4edadee0228
03 Lawn Boy.flac:3323a769a3dab202ddbcf52bd09c50a2
04 My Friend My Friend.flac:b12727d3b0821fcd5a8d3f012f8f9d34
05 Stash.flac:0d4dcf716ff909dac850014114e4ddee
06 Bathtub Gin.flac:beae8cc3c9f13ec1e13de6a4bfb1fe00
07 Tuning.flac:91aa433886ecd85695565b29fe60ebde
08 Fuego.flac:0d9b752ca2738baef17ed651160dbb5f
09 Thread.flac:0c03ee153deacb1fb71807a100eea00a
10 Crosseyed And Painless.flac:e132b1446470a9045405d8882013b056
11 Makisupa Policeman.flac:d6731ba7ec39f6a79ab958d47815592f
12 End Of Session.flac:7edb40be0d1cadf9e66f90341c2b559d
13 Tuesday.flac:05565d324040f9eeefbbcb837b87fdb3
14 Cavern.flac:9a9a3ebfde881d2c5001f1066c455bf3
15 Encore Break.flac:9b538d167624c4e0212b8e6ef2b7679a
16 Julius.flac:f850244dbf30c497a9c7efa1451fb104
17 Lawn Boy.flac:c29b92ca88c52c88fc252c0e715c9b98

Comments
Add Comment
Other Sources (comments)
flac16 44.1khz ... (2) flac24 48khz ... (0) flac24 48khz ... (0) flac16 44.1khz... (0) flac16 44.1khz ... (0) flac24 48khz ... (0) flac24 96khz ... (0) flac16 48khz ... (0) flac24 96khz ... (0)
Date User Comment