Browse Collections Artists Sources   Search Dates

Add Show    List Management    Help


Phish 07/26/17
Madison Square Garden, New York, NY
Comments Add Comment    Source Collectors    Add to Collection    Add to Want List    History
Source # 139152 Other Sources
Entered by Matt Vernon
Checksums ffp , flac-md5
Disc Counts 0 / 0
Media Size
Date Circulated
Date Added

08/25/2017
Source Summary flac16 44.1khz Schoeps CMC6/MK4 > Sound Devices 744T (24bit/96k) > Samplitude Pro X3 Suite > FLAC/24. Section 2 Row 1 Seat 20 with the mic stand 9 feet high. Recorded and Mastered By Charlie Miller. 
Source Information - Download Text | Download Zip
Phish - July 26, 2017
Madison Square Garden - New York, NY
Baker's Dozen Show 5 - Powdered

Recording Info:
Schoeps CMC6/MK4 > Sound Devices 744T (24bit/96k) > Samplitude Pro X3 Suite > FLAC/24
(1 DVD FLAC)

Recorded and Mastered By Charlie Miller
[email protected]
August 13, 2017

Notes:
-- Section 2 Row 1 Seat 20 with the mic stand 9 feet high
-- Chris Kuroda allowed me to set up next to him in the lighting booth
-- This is 139094 24 bit -> 16 bit

Set 1:
01 - Tuning
02 - White Winter Hymnal
03 - Cars Trucks Buses
04 - My Soul
05 - Roses Are Free
06 - The Very Long Fuse
07 - Gumbo
08 - Yarmouth Road
09 - Pebbles And Marbles
10 - Farmhouse
11 - Tube

Set 2:
12 - Tuning
13 - Carini
14 - Mr. Completely
15 - 1999
16 - Steam
17 - No Quarter
18 - Character Zero

Encore:
19 - Encore Break
20 - Powderfinger


SHNTOOL OUTPUT:
     length     expanded size    cdr  WAVE problems  fmt   ratio  filename
     1:12.62       12846668 B   ---   --   ---xx   flac  0.4377  01 Tuning.flac
     3:17.46       34859036 B   ---   --   ---xx   flac  0.3796  02 White Winter Hymnal.flac
     6:11.47       65554988 B   ---   --   ---xx   flac  0.5286  03 Cars Trucks Buses.flac
     6:58.72       73904588 B   ---   --   ---xx   flac  0.5381  04 My Soul.flac
     5:37.43       59547980 B   ---   --   ---xx   flac  0.5315  05 Roses Are Free.flac
     7:52.23       83314940 B   ---   --   ---xx   flac  0.5340  06 The Very Long Fuse.flac
     8:07.20       85953884 B   ---   --   ---xx   flac  0.4933  07 Gumbo.flac
     7:16.08       76929260 B   ---   --   ---xx   flac  0.5215  08 Yarmouth Road.flac
    10:49.04      114493052 B   ---   --   ---xx   flac  0.4968  09 Pebbles And Marbles.flac
     7:39.46       81075836 B   ---   --   ---xx   flac  0.5096  10 Farmhouse.flac
    14:38.23      154933340 B   ---   --   ---xx   flac  0.5443  11 Tube.flac
     1:18.61       13902716 B   ---   --   ---xx   flac  0.3693  12 Tuning.flac
    15:47.56      167182556 B   ---   --   ---xx   flac  0.5320  13 Carini.flac
    13:54.27      147181148 B   ---   --   ---xx   flac  0.5300  14 Mr Completely.flac
    14:37.25      154761644 B   ---   --   ---xx   flac  0.5428  15 1999.flac
    13:37.73      144290540 B   ---   --   ---xx   flac  0.5077  16 Steam.flac
     6:57.04       73568252 B   ---   --   ---xx   flac  0.4884  17 No Quarter.flac
     9:44.28      103083500 B   ---   --   ---xx   flac  0.5146  18 Character Zero.flac
     3:18.53       35051900 B   ---   --   ---xx   flac  0.4279  19 Encore Break.flac
     6:43.01       71091596 B   ---   --   ---xx   flac  0.5213  20 Powderfinger.flac
   165:40.47     1753527424 B                            0.5160  (20 files)


Show Checksums
ffp
01 Tuning.flac:6155a270b0138c68fe68fd5f9c6f3880
02 White Winter Hymnal.flac:7b2f62857026f27bcc5622cdabe1866a
03 Cars Trucks Buses.flac:1e117dd0a3357d2bd6821d2ae291a67b
04 My Soul.flac:a498e40938cdb7c5029af52adc12e2e9
05 Roses Are Free.flac:f040e6741631272fb79a917bf416c487
06 The Very Long Fuse.flac:29784e4a8c1f75b6cf248452eec02773
07 Gumbo.flac:0378b001c73bb873017fff5d1302ec6a
08 Yarmouth Road.flac:5c88fbe119f79a98e023e70ad96e0f9b
09 Pebbles And Marbles.flac:bc4cc71edb4378b68bc903be67c47889
10 Farmhouse.flac:5bac75ee49450c40e30c846b7833828d
11 Tube.flac:75b4c9ebb040d4864e96286371881ab4
12 Tuning.flac:b459361aeec153a5732d967e107f9e20
13 Carini.flac:7b3d18a93123b40e42af5362dc397125
14 Mr Completely.flac:8a3afd5a942b2831ca8764673afff73c
15 1999.flac:8a55b522e331b4df97acdcb2394084e2
16 Steam.flac:dd02db024d7da1dd94fb735350a69b61
17 No Quarter.flac:9300f96ff7349cfee0b99fa774464adf
18 Character Zero.flac:26dcb09d13f88e32c3408dc0ce93bd0b
19 Encore Break.flac:8dc1f9f865df083fce88ad19e82b2249
20 Powderfinger.flac:2dfaff1ff6573603132297cb166c89ec
flac-md5
9e28f8e0febfe6e36ba6fc7ed0b52a3f *01 Tuning.flac
1bd26772fbe2d8bfd0df46e9248643d3 *02 White Winter Hymnal.flac
25722efc87f8fcdee8760fc30a703ca4 *03 Cars Trucks Buses.flac
cc7108cd87a8a205fe80634151d3858e *04 My Soul.flac
9b2d766ee582295820e76353967a127b *05 Roses Are Free.flac
7e2c5d99824180b794ede6c66ab55550 *06 The Very Long Fuse.flac
792c0b8a04e4b8f419f9b7e679f41890 *07 Gumbo.flac
063390976792b2294c2de9eddace3149 *08 Yarmouth Road.flac
56db4702a7f89fd84549fcf5f2a14b9e *09 Pebbles And Marbles.flac
24050ef80e7497a188377399b1dbf8df *10 Farmhouse.flac
1b0bd5082460eb490a1039ae8e4c30f3 *11 Tube.flac
55e3ba2315d5b5253e89ff64f8cdd323 *12 Tuning.flac
ef6317876570d2cebd5759ddd2633aab *13 Carini.flac
d956b643f0d706f1d5e940c34e42a5cf *14 Mr Completely.flac
caf6013adc58add325f7c0295880d0d3 *15 1999.flac
7a8ad40eead415b41d202ed57f944f4f *16 Steam.flac
45301a9ec2ec4f0520c8e13d7d74d548 *17 No Quarter.flac
2a50946e3a00031fe2ce067604e19269 *18 Character Zero.flac
804b868069b0196307bb94566b4213e7 *19 Encore Break.flac
aa75a1f2e7ea5b204b8e15b4583653a1 *20 Powderfinger.flac

Comments
Add Comment
Other Sources (comments)
flac16 44.1khz ... (0) flac24 48khz ... (0) flac24 48khz ... (0) flac16 44.1khz ... (1) flac24 48khz ... (0) flac16 44.1khz ... (0) flac24 48khz ... (0) flac24 48khz ... (0) flac24 48khz ... (0) flac24 96khz ... (0) flac16 48khz Field:... (0) flac24 96khz ... (0) flac16 44.1khz ... (1)
Date User Comment