Browse Collections Artists Sources   Search Dates

Add Show    List Management    Help


Phish 07/28/17
Madison Square Garden, New York, NY
Comments Add Comment    Source Collectors    Add to Collection    Add to Want List    History
Source # 139168 Other Sources
Entered by Matt Vernon
Checksums ffp , flac-md5
Disc Counts 0 / 0
Media Size Compressed: 907.34 MB (951410688 bytes)
Date Circulated
Date Added
08/27/2017
08/27/2017
Source Summary flac16 44.1khz Schoeps CMC6/MK4 > Sound Devices 744T (24bit/96k) > Samplitude Pro X3 Suite > FLAC/24. Section 2 Row 1 Seat 20 with the mic stand 9 feet high. Recorded and Mastered By Charlie Miller. 
Source Information - Download Text | Download Zip
Phish - July 28, 2017
Madison Square Garden - New York, NY
Baker's Dozen Show 6 - Double Chocolate

Recording Info:
Schoeps CMC6/MK4 > Sound Devices 744T (24bit/96k) > Samplitude Pro X3 Suite > FLAC/24
(1 DVD FLAC)

Recorded and Mastered By Charlie Miller
[email protected]
August 13, 2017

Notes:
-- Section 2 Row 1 Seat 20 with the mic stand 9 feet high
-- Chris Kuroda allowed me to set up next to him in the lighting booth
-- This is 139095 24 bit -> 16 bit

Set 1:
01 - Tuning
02 - Chocolate Rain
03 - Ass Handed
04 - Free
05 - Weigh
06 - Undermind
07 - Oh Kee Pa Ceremony
08 - The Dogs
09 - Destiny Unbound
10 - Divided Sky
11 - Things People Do
12 - Sand

Set 2:
13 - Tuning
14 - Have Mercy
15 - Chalkdust Torture
16 - You Sexy Thing
17 - Mercury
18 - Backwards Down The Number Line
19 - Rock And Roll

Encore:
20 - Encore Break
21 - Fee
22 - Space Oddity


SHNTOOL OUTPUT:
    length     expanded size    cdr  WAVE problems  fmt   ratio  filename
     1:04.34       11369612 B   ---   --   ---xx   flac  0.4541  01 Tuning.flac
     2:52.61       30484316 B   ---   --   ---xx   flac  0.4423  02 Chocolate Rain.flac
     1:08.02       11999948 B   ---   --   ---xx   flac  0.5067  03 Ass Handed.flac
    11:12.08      118559660 B   ---   --   ---xx   flac  0.5349  04 Free.flac
     5:22.06       56814956 B   ---   --   ---xx   flac  0.5234  05 Weigh.flac
     8:52.25       93903644 B   ---   --   ---xx   flac  0.5300  06 Undermind.flac
     1:58.43       20916380 B   ---   --   ---xx   flac  0.4868  07 Oh Kee Pa Ceremony.flac
     5:47.44       61314332 B   ---   --   ---xx   flac  0.5598  08 The Dogs.flac
     7:48.38       82644620 B   ---   --   ---xx   flac  0.5413  09 Destiny Unbound.flac
    17:00.32      180003308 B   ---   --   ---xx   flac  0.5105  10 Divided Sky.flac
     4:21.19       46085132 B   ---   --   ---xx   flac  0.5108  11 Things People Do.flac
    12:02.38      127450220 B   ---   --   ---xx   flac  0.5555  12 Sand.flac
     1:43.49       18284492 B   ---   --   ---xx   flac  0.4159  13 Tuning.flac
     5:47.47       61321388 B   ---   --   ---xx   flac  0.5032  14 Have Mercy.flac
    24:22.54      258023852 B   ---   --   ---xx   flac  0.5348  15 Chalkdust Torture.flac
    10:52.35      115095164 B   ---   --   ---xx   flac  0.5109  16 You Sexy Thing.flac
    16:24.16      173615276 B   ---   --   ---xx   flac  0.5158  17 Mercury.flac
     9:34.10      101277164 B   ---   --   ---xx   flac  0.5446  18 Backwards Down The Number Line.flac
     6:47.12       71823068 B   ---   --   ---xx   flac  0.5885  19 Rock And Roll.flac
     4:20.62       46009868 B   ---   --   ---xx   flac  0.4435  20 Encore Break.flac
     6:54.37       73116668 B   ---   --   ---xx   flac  0.5051  21 Fee.flac
     5:33.44       58844732 B   ---   --   ---xx   flac  0.4873  22 Space Oddity.flac
   171:51.41     1818957800 B                            0.5230  (22 files)





Show Checksums
ffp
01 Tuning.flac:413bfdbcd05690011b2f8d06122ddea8
02 Chocolate Rain.flac:57e54ecd1dea5132f5a9a9817333c1cf
03 Ass Handed.flac:b59ceb375733fd32854f17960a205ad9
04 Free.flac:e34bad267d7b409072e411912146ecc1
05 Weigh.flac:1ba807ac076e314e50aa136211d09d4b
06 Undermind.flac:98067e389ae4defb72b93660d3dc13a2
07 Oh Kee Pa Ceremony.flac:205495792dc971e78a68773086d12a69
08 The Dogs.flac:4a942986dc4b57feba682cf1945b9761
09 Destiny Unbound.flac:d5cb60eafb73c287f017a7ea68d62623
10 Divided Sky.flac:5fe61e72824954f9720a5a6eb3ef4c12
11 Things People Do.flac:05e5088ccaab8659ba456a476a5748a6
12 Sand.flac:87df5201e25dbf2c0ab3db17fc899951
13 Tuning.flac:0c2d4cc9f32f119d6ede85847aae9cef
14 Have Mercy.flac:8281fa1c92b19a9dae503d066e8d1c9e
15 Chalkdust Torture.flac:25b7572999348f05d9538de7ab1207f4
16 You Sexy Thing.flac:a724fa82be5f4627f741238e03f0e79b
17 Mercury.flac:43b2f6a8847d6105b78ef2bb431a04e1
18 Backwards Down The Number Line.flac:ce530764afacaecd95ea7f9800d72e65
19 Rock And Roll.flac:1d7a4187bde48d354dda1ad46b89ec54
20 Encore Break.flac:3a95443f458ddc022e8f3666a86dc591
21 Fee.flac:32af0fd91bf1b450991ac1b88fa0b735
22 Space Oddity.flac:d6ca2bc70cb16f25d0ce1abe25781e49
flac-md5
84fc2930483d97368ebd36eb5ca16143 *01 Tuning.flac
a377d522782980d52051590757708330 *02 Chocolate Rain.flac
3fa9b92ea1bad659c1a5bd4f68590364 *03 Ass Handed.flac
87ab00e69477722901952c496fabc0d2 *04 Free.flac
9105d1a0eb6914a94eca6fbf11a738ea *05 Weigh.flac
da4512df148c6cecc2465b19e37abd55 *06 Undermind.flac
7548ecf54210ec0039cee07258858107 *07 Oh Kee Pa Ceremony.flac
87b0052c7fad420da418d7902c1014f8 *08 The Dogs.flac
229657391f480cc2e1326260622aa4a2 *09 Destiny Unbound.flac
49c66c6caa197ad782ffec0cd6afb26a *10 Divided Sky.flac
39d41140be44051ae74cbd2fca223601 *11 Things People Do.flac
7705af28aafd476529bc2fbe103848c7 *12 Sand.flac
4735d64802f0cc4ef0b2c5369b42af64 *13 Tuning.flac
66f1a078e789f2121bcd0328c5cbcd1d *14 Have Mercy.flac
f12f6c33b42498d2c058ad11cd52bbf0 *15 Chalkdust Torture.flac
e7a689e4e05f7e8f6761d16f5275443a *16 You Sexy Thing.flac
df64e51c2954bdae9057ea3444b05bdd *17 Mercury.flac
5081d2e576d8876d9c2120903a7b3e23 *18 Backwards Down The Number Line.flac
8f9dfb6e11fb4532340c97f1f138de13 *19 Rock And Roll.flac
fc802ae3ad0f9a92c8d6d8179d6d11c8 *20 Encore Break.flac
c341204fbb9ac171445eecc2b26cbb70 *21 Fee.flac
cde86dd02e60e35c94a37068dcd80934 *22 Space Oddity.flac

Comments
Add Comment
Other Sources (comments)
flac16 44.1khz ... (0) flac24 48khz ... (0) flac16 44.1khz ... (0) flac24 48khz ... (0) flac16 44.1khz AKG... (1) flac24 48khz AKG... (1) flac16 48khz ... (0) flac24 96khz Field:... (0) flac24 48khz... (1) flac24 48khz ... (1) flac24 96khz ... (0) flac16 44.1khz ... (0) flac16 44.1khz ... (0) flac24 96khz ... (0) flac24 96khz ... (0) flac16 44.1khz... (0)
Date User Comment