Browse Collections Artists Sources   Search Dates

Add Show    List Management    Help


Phish 07/29/17
Madison Square Garden, New York, NY
Comments Add Comment    Source Collectors    Add to Collection    Add to Want List    History
Source # 139169 Other Sources
Entered by Matt Vernon
Checksums ffp , flac-md5
Disc Counts 0 / 0
Media Size Compressed: 848.12 MB (889319424 bytes)
Date Circulated
Date Added
08/28/2017
08/28/2017
Source Summary flac16 44.1khz Schoeps CMC6/MK4 > Sound Devices 744T (24bit/96k) > Samplitude Pro X3 Suite > FLAC/24. Section 2 Row 1 Seat 20 with the mic stand 9 feet high. Recorded and Mastered By Charlie Miller. 
Source Information - Download Text | Download Zip
Phish - July 29, 2017
Madison Square Garden - New York, NY
Baker's Dozen Show 7 - Cinnamon

Recording Info:
Schoeps CMC6/MK4 > Sound Devices 744T (24bit/96k) > Samplitude Pro X3 Suite > FLAC/24
(1 DVD FLAC)

Recorded and Mastered By Charlie Miller
[email protected]
August 13, 2017

Notes:
-- Section 2 Row 1 Seat 20 with the mic stand 9 feet high
-- Chris Kuroda allowed me to set up next to him in the lighting booth
-- This is 139096 24 bit -> 16 bit

Set 1:
01 - Tuning
02 - Llama
03 - Wilson
04 - Stealing Time From The Faulty Line
05 - Ya Mar
06 - Tela
07 - The Birds
08 - The Line
09 - Water In The Sky
10 - Vultures
11 - Train Song
12 - Horn
13 - I Am The Walrus

Set 2:
14 - Tuning
15 - Blaze On
16 - Twenty Years Later
17 - Alumni Blues
18 - Letter To Jimmy Page
19 - Alumni Blues
20 - Meatsick
21 - Dirt
22 - Harry Hood

Encore:
23 - Encore Break
24 - Cinnamon Girl


SHNTOOL OUTPUT:
    length     expanded size    cdr  WAVE problems  fmt   ratio  filename
     1:14.32       13128908 B   ---   --   ---xx   flac  0.4240  01 Tuning.flac
     4:33.35       48239564 B   ---   --   ---xx   flac  0.5665  02 Llama.flac
     9:11.40       97290524 B   ---   --   ---xx   flac  0.5187  03 Wilson.flac
     8:26.57       89392508 B   ---   --   ---xx   flac  0.5398  04 Stealing Time From The Faulty Line.flac
     9:46.39      103462172 B   ---   --   ---xx   flac  0.5245  05 Ya Mar.flac
     7:21.16       77830076 B   ---   --   ---xx   flac  0.5028  06 Tela.flac
     4:20.31       45936956 B   ---   --   ---xx   flac  0.5337  07 The Birds.flac
     7:12.02       76209548 B   ---   --   ---xx   flac  0.5364  08 The Line.flac
     4:47.62       50772668 B   ---   --   ---xx   flac  0.5253  09 Water In The Sky.flac
     7:32.30       79803404 B   ---   --   ---xx   flac  0.5093  10 Vultures.flac
     2:52.05       30352604 B   ---   --   ---xx   flac  0.4449  11 Train Song.flac
     3:54.28       41343500 B   ---   --   ---xx   flac  0.5131  12 Horn.flac
     7:26.21       78723836 B   ---   --   ---xx   flac  0.5459  13 I Am The Walrus.flac
     0:59.29       10475852 B   ---   --   ---xx   flac  0.3860  14 Tuning.flac
    23:16.11      246280316 B   ---   --   ---xx   flac  0.5234  15 Blaze On.flac
    11:09.30      118082204 B   ---   --   ---xx   flac  0.5269  16 Twenty Years Later.flac
     3:32.27       37460348 B   ---   --   ---xx   flac  0.5173  17 Alumni Blues.flac
     1:16.65       13559324 B   ---   --   ---xx   flac  0.5229  18 Letter To Jimmy Page.flac
     3:12.74       34042892 B   ---   --   ---xx   flac  0.5119  19 Alumni Blues.flac
     9:58.21      105536636 B   ---   --   ---xx   flac  0.5177  20 Meatstick.flac
     4:33.29       48225452 B   ---   --   ---xx   flac  0.4734  21 Dirt.flac
    16:03.47      169983788 B   ---   --   ---xx   flac  0.5186  22 Harry Hood.flac
     4:06.48       43507340 B   ---   --   ---xx   flac  0.4299  23 Encore Break.flac
     5:07.58       54291260 B   ---   --   ---xx   flac  0.5613  24 Cinnamon Girl.flac
   161:56.12     1713931680 B                            0.5188  (24 files)



Show Checksums
ffp
01 Tuning.flac:89f491ae064e98b0d378fa049e7fc485
02 Llama.flac:0486de19a19646aa0e477341361a25b2
03 Wilson.flac:7c3a342e16e4c60277835525e88e9584
04 Stealing Time From The Faulty Line.flac:9a6b6e32b132349f00535d2d03f87714
05 Ya Mar.flac:962ae593d0eb4558d240bc34505dbd8b
06 Tela.flac:fdcded309ec753ebefd03a1af65ad9e9
07 The Birds.flac:65480e1f88e55087d73abd98c91d932b
08 The Line.flac:5ab2e457f908d0b2ae0bd5eb158a3826
09 Water In The Sky.flac:c105a2ba82ad1a7b0d5bd2bb49d16c31
10 Vultures.flac:0f2868d1919fb93c797e5968bc99308b
11 Train Song.flac:baab306b0c318a21c0371c969ad58c80
12 Horn.flac:ddd84cd067402e92c9572aa53787c3c6
13 I Am The Walrus.flac:bc974acc9a29d75bd9922b7839771507
14 Tuning.flac:2d881f0e5b1412346dbbbfd4089af903
15 Blaze On.flac:a6bd6050cf4b4cf2a1e981ef95a5ce13
16 Twenty Years Later.flac:5111a7ebebe3c69faa2de9d3b301d323
17 Alumni Blues.flac:a6d9a54870f811d9374a32160f1892a7
18 Letter To Jimmy Page.flac:b44f1eb0c72a2433c122bd25caa22fe6
19 Alumni Blues.flac:a4cb57abbb2dd3b534de6029671f47bf
20 Meatstick.flac:d0e273b6db35c05bf17f58c38381421d
21 Dirt.flac:79e372fce34ed5198286fbf7463b638e
22 Harry Hood.flac:7335bac89b50179f4dda86c628a39349
23 Encore Break.flac:fda0c7c1267012348f96b713b52b8bbd
24 Cinnamon Girl.flac:235f16eed50ceb984c9bfa5928524562
flac-md5
5b81c50f73b2b8013523adfa5766ec89 *01 Tuning.flac
33a0030c0927f33312ad9b219a17dd35 *02 Llama.flac
c4702b6502d2d76ccb5f6e59fc864a1a *03 Wilson.flac
f90522baa8d789ad291180a8df744b2a *04 Stealing Time From The Faulty Line.flac
61936b422cd15d1f53bca5d23b400414 *05 Ya Mar.flac
f4c06e9eb9fef6f21b46efa1cf0a284c *06 Tela.flac
05c735c04bc87ff47fe7bd10303dcb26 *07 The Birds.flac
1815974e3b27bdd1d846811663333c95 *08 The Line.flac
90669f07cac61be6af1da8d39f23d400 *09 Water In The Sky.flac
a27d8f28615bd5e922d127b650846295 *10 Vultures.flac
48d1b9c53e841573adeffbac5e965d2b *11 Train Song.flac
a7784c5e3b425f521ca3c112bacd128e *12 Horn.flac
6655709f1dd872194ad8d7bddc527ce9 *13 I Am The Walrus.flac
bf2aed76f38db887aa1b8d58e92beb5d *14 Tuning.flac
470162afc65bd4fdbf029464e8d7834f *15 Blaze On.flac
85a3e41311e99d130ed07337a2ad726a *16 Twenty Years Later.flac
98a5f9bce23b5d608f680d52a5412866 *17 Alumni Blues.flac
c6774d165619c1789068f2ae602c4dd1 *18 Letter To Jimmy Page.flac
68df1fbddccc77b4b9385a9bb7cf589e *19 Alumni Blues.flac
17253e7d961769b1e85e3c84e83bc3f3 *20 Meatstick.flac
a8f7f07416b8efab9083faa1ce883808 *21 Dirt.flac
3ffb09bf3d2c9e5cce04ee7905252645 *22 Harry Hood.flac
c930211c59094b0626ba57d2a4750d22 *23 Encore Break.flac
da456aa73203b2d573410dffaa208627 *24 Cinnamon Girl.flac

Comments
Add Comment
Other Sources (comments)
flac16 44.1khz ... (0) flac24 48khz ... (0) flac24 48khz ... (1) flac16 44.1khz ... (1) flac16 44.1khz... (0) flac16 48khz ... (0) flac24 96khz ... (0) flac24 48khz ... (0) flac16 44.1khz ... (0) flac24 96khz ... (0) flac16 44.1khz ... (0) flac24 96khz ... (0) flac24 96khz ... (0) flac16 44.1khz... (0)
Date User Comment