Browse Collections Artists Sources   Search Dates

Add Show    List Management    Help


Grateful Dead 03/16/94
Rosemont Horizon, Rosemont, IL
Comments Add Comment    Source Collectors    Add to Collection    Add to Want List    History
Source # 139174 Other Sources
Entered by Matt Vernon
Checksums ffp , flac-md5
Disc Counts 0 / 0
Media Size Compressed: 870.75 MB (913052282 bytes)
Uncompressed: 1.58 GB (1693704392 bytes)
Date Circulated
Date Added
08/28/2017
08/28/2017
Source Summary flac16; Recording Info: SBD > Dat Master (Panasonic SV-3700/44.1k); Transfer Info: Dat Master (Panasonic SV-3800) > Tascam DA-3000 > Samplitude Pro X3 Suite > FLAC/16; All Transfers and Mastering by Charlie Miller 
  Archive
Source Information - Download Text | Download Zip
Grateful Dead - March 16, 1994
Rosemont Horizon Arena - Rosemont, IL

Recording Info:
SBD > Dat Master (Panasonic SV-3700/44.1k)

Transfer Info:
Dat Master (Panasonic SV-3800) > Tascam DA-3000 > Samplitude Pro X3 Suite > FLAC/16
(3 Discs Audio / 1 DVD FLAC)

All Transfers and Mastering by Charlie Miller
[email protected]
August 27, 2017

Notes:
-- John Cutler's first show as The Grateful Dead soundman
-- Static from Bobby's guitar in New Minglewood Blues and So Many Roads

Set 1:
01 - Jack Straw
02 - Friend Of The Devil
03 - New Minglewood Blues
04 - So Many Roads
05 - Just Like Tom Thumb's Blues
06 - Beat It On Down The Line
07 - High Time
08 - Easy Answers >
09 - Don't Ease Me In

Set 2:
10 - Tuning
11 - Scarlet Begonias >
12 - Fire On The Mountain
13 - Looks Like Rain
14 - Way To Go Home
15 - Dark Star >
16 - Drums >
17 - Space >
18 - I Need A Miracle >
19 - Standing On The Moon >
20 - Sugar Magnolia

Encore:
21 - Tuning
22 - I Fought The Law


SHNTOOL OUTPUT:
    length     expanded size    cdr  WAVE problems  fmt   ratio  filename
     7:32.57       79866908 B   ---   --   ---xx   flac  0.5097  01 Jack Straw.flac
     8:23.39       88820972 B   ---   --   ---xx   flac  0.5606  02 Friend Of The Devil.flac
     9:05.55       96267404 B   ---   --   ---xx   flac  0.5666  03 New Minglewood Blues.flac
     7:23.15       78180524 B   ---   --   ---xx   flac  0.5404  04 So Many Roads.flac
     7:00.03       74095100 B   ---   --   ---xx   flac  0.5432  05 Just Like Tom Thumb's Blues.flac
     3:10.72       33685388 B   ---   --   ---xx   flac  0.5821  06 Beat It On Down The Line.flac
     7:06.30       75217004 B   ---   --   ---xx   flac  0.4928  07 High Time.flac
     5:53.06       62283356 B   ---   --   ---xx   flac  0.5926  08 Easy Answers.flac
     3:00.16       31789676 B   ---   --   ---xx   flac  0.5844  09 Don't Ease Me In.flac
     1:34.42       16680428 B   ---   --   ---xx   flac  0.3360  10 Tuning.flac
    10:14.26      108370796 B   ---   --   ---xx   flac  0.5778  11 Scarlet Begonias.flac
    12:33.12      132857468 B   ---   --   ---xx   flac  0.5777  12 Fire On The Mountain.flac
     8:27.44       89538332 B   ---   --   ---xx   flac  0.5575  13 Looks Like Rain.flac
     6:32.74       69322892 B   ---   --   ---xx   flac  0.5792  14 Way To Go Home.flac
    11:14.47      119004188 B   ---   --   ---xx   flac  0.5655  15 Dark Star.flac
    12:01.51      127304396 B   ---   --   ---xx   flac  0.4377  16 Drums.flac
    13:04.42      138396428 B   ---   --   ---xx   flac  0.4321  17 Space.flac
     3:55.05       41465804 B   ---   --   ---xx   flac  0.5938  18 I Need A Miracle.flac
     8:53.35       94103564 B   ---   --   ---xx   flac  0.5451  19 Standing On The Moon.flac
     8:59.30       95150204 B   ---   --   ---xx   flac  0.5915  20 Sugar Magnolia.flac
     0:40.19        7100732 B   ---   --   ---xx   flac  0.3695  21 Tuning.flac
     3:13.67       34202828 B   ---   --   ---xx   flac  0.6040  22 I Fought The Law.flac
   160:01.37     1693704392 B                            0.5391  (22 files)


Show Checksums
ffp
01 Jack Straw.flac:571a4abba7e75a7144cb4d4947f97c0f
02 Friend Of The Devil.flac:fc2560dc995a12060964628230f90591
03 New Minglewood Blues.flac:470beebb98846f72a4410f215086a490
04 So Many Roads.flac:5c7deb9a087247fa04b616b6d3dbd5e8
05 Just Like Tom Thumb's Blues.flac:2f4ff64f2cdb035b08b45ff2d5387603
06 Beat It On Down The Line.flac:c2be22c17c3fc10401179dd7d03221c1
07 High Time.flac:710637d9cf5985794b7518590eea88f3
08 Easy Answers.flac:c31165ec03ce04d5fee7e2a0756e927d
09 Don't Ease Me In.flac:e9e453968f5e90635acaa5644db0d090
10 Tuning.flac:8b8f28f56328458d942cf132eca2d704
11 Scarlet Begonias.flac:0a497939dbb89189c5e9429cd434fb48
12 Fire On The Mountain.flac:81936096e2c67e907de2b25621174cb2
13 Looks Like Rain.flac:afe674338ebe45186e0985553db0689c
14 Way To Go Home.flac:6ebdb5bd6b8343801b95481d9386710f
15 Dark Star.flac:307482b72ddf4f06ca49a862b3295560
16 Drums.flac:9cca4f17543e3bfbee6ccd724c79b2dd
17 Space.flac:7a24d1b2f82d13c72670542266d0b447
18 I Need A Miracle.flac:84fe3d46df03acf51cc2cc7aa2dde076
19 Standing On The Moon.flac:b132bb5366c603c2da38e2076f8804be
20 Sugar Magnolia.flac:2b787ff8c328af84d028ab75024071a7
21 Tuning.flac:f08a6ba20c53922e6a318f826143e3da
22 I Fought The Law.flac:e20457e8b4859f743b909ee8e29c68fe
flac-md5
2afedd942f044cfa5993bceb0430ca59 *01 Jack Straw.flac
d000b71ba4cce97f4b906bd796a84d14 *02 Friend Of The Devil.flac
728842605bf1e1c7b3201c8ddcc48a04 *03 New Minglewood Blues.flac
7ecebcb51897a97f6ca1019338ff3045 *04 So Many Roads.flac
4cc8b6db0c53030783b80b248fb9037d *05 Just Like Tom Thumb's Blues.flac
82fd0cc16288fd9d21e07810776dd717 *06 Beat It On Down The Line.flac
c02dc7ae257ab7527ede9ea3587371d7 *07 High Time.flac
690dc22a625fbbdb9ca45cfa271c2be6 *08 Easy Answers.flac
adee5b6626c01ae798760c7a2d563219 *09 Don't Ease Me In.flac
ae535c85ef9fd9d344afd77bd768be9f *10 Tuning.flac
56b92752e568f61206c2a22fc4ee2ac1 *11 Scarlet Begonias.flac
a814ebe9246a697ec13474038979129a *12 Fire On The Mountain.flac
d8417123474797dfb2145d2a83c7faf8 *13 Looks Like Rain.flac
62fce4e9aefca0bb0ecab72c3b988638 *14 Way To Go Home.flac
b3d8421c743b3c4468c4cb52201adf26 *15 Dark Star.flac
d53fcfb612c320217644914a6f42719d *16 Drums.flac
30aa2e0abfe46440268e03523a8c3bbf *17 Space.flac
67c2a7851fd9b6a4f86e8af11046ffb3 *18 I Need A Miracle.flac
a72cc1c94bf6a8216bb498d22aad46db *19 Standing On The Moon.flac
562ecc0aaae6857e4c6a035492916a7c *20 Sugar Magnolia.flac
33d12b8cb72647e4f3f58f37f4aa3f5b *21 Tuning.flac
874dea22a3ceb76842a50433e003ad51 *22 I Fought The Law.flac

Comments
Add Comment
Other Sources (comments)
DSBD->DAT-> DAP-1> Digital... (3) SBD> Dat> Sonic Solutions>... (2) flac16/44 Source... (0)
Date User Comment