Browse Collections Artists Sources   Search Dates

Add Show    List Management    Help


Grateful Dead 12/05/81
Market Square Arena, Indianapolis, IN
Comments Add Comment    Source Collectors    Add to Collection    Add to Want List    History
Source # 139179 Other Sources
Entered by Matt Vernon
Checksums flac-md5 , ffp
Disc Counts 0 / 0
Media Size Compressed: 1.86 GB (1994317824 bytes)
Uncompressed: 2.54 GB (2727585170 bytes)
Date Circulated
Date Added
08/28/2017
08/28/2017
Source Summary flac24; AUD: Beyers mics > lead deck (Richie Stankiewicz) > Sony TC-D5 > Hitachi UD-90's, FOB recording by Craig L (patched out). Transfer: MAC > Nakamichi CR-5A > Edirol FA-66 > Wavelab 2448 > CD-Wave (24bit output) > TLH > FLAC 2448 tagged. Transfer by Andrew F. 08/2017 
  Archive
Source Information - Download Text | Download Zip
GRATEFUL DEAD
Market Square Arena
Indianapolis IN
12-05-1981

24bit/48kHz file-set

s1t01 Alabama Getaway >
s1t02 Promised Land
s1t03 Friend of the Devil >
s1t04 C.C. Rider (double-time)
s1t05 Cumberland Blues >
s1t06 El Paso
s1t07 Ramble on Rose
s1t08 Passenger
s1t09 Birdsong >
s1t10 Let it Grow

s2t01 Shakedown Street >
s2t02 Lost Sailor >
s2t03 Saint of Circumstance
s2t04 Big Railroad Blues
s2t05 Playin' in the Band >
s2t06 Drums >
s2t07 Space >
s2t08 The Wheel >
s2t09 Playin' in the Band Reprise >
s2t10 Stella Blue >
s2t11 Sugar Magnolia
s2t12 Encore: One More Saturday Night

AUD: Beyers mics > lead deck (Richie Stankiewicz) > Sony TC-D5 >
Hitachi UD-90's, FOB recording by Craig L (patched out).

Transfer: MAC > Nakamichi CR-5A > Edirol FA-66 > Wavelab 2448 >
CD-Wave (24bit output) > TLH > FLAC 2448 tagged. Transfer by
Andrew F. 08/2017

Note: P.A. mix issues in Alabama. First 0:11 Alabama left mic
(mono) only. ID-5488 patches crowd end of Ramble on Rose (AUD)
7:07 > 7:11, and re-mixed (SBD) portion of Drums 5:06 > 7:38.

    length     expanded size    cdr  WAVE problems  fmt   ratio  filename
     4:49.693      83431724 B   cxx   --   ---xx   flac  0.7264  gd1981-12-05s1t01.flac
     4:22.000      75456044 B   cxx   --   ---xx   flac  0.7363  gd1981-12-05s1t02.flac
     8:11.787     141634604 B   cxx   --   ---xx   flac  0.7255  gd1981-12-05s1t03.flac
     6:41.587     115657004 B   cxx   --   ---xx   flac  0.7371  gd1981-12-05s1t04.flac
     5:11.200      89625644 B   cxx   --   ---xx   flac  0.7421  gd1981-12-05s1t05.flac
     4:51.573      83973164 B   cxx   --   ---xx   flac  0.7341  gd1981-12-05s1t06.flac
     7:11.480     124266284 B   cxx   --   ---xx   flac  0.7356  gd1981-12-05s1t07.flac
     5:08.547      88861484 B   cxx   --   ---xx   flac  0.7495  gd1981-12-05s1t08.flac
    10:30.547     181597484 B   cxx   --   ---xx   flac  0.7399  gd1981-12-05s1t09.flac
    10:30.317     181531322 B   cxx   --   ---xx   flac  0.7444  gd1981-12-05s1t10.flac
    12:46.747     220823084 B   cxx   --   ---xx   flac  0.7324  gd1981-12-05s2t01.flac
     7:03.587     121993004 B   cxx   --   ---xx   flac  0.7195  gd1981-12-05s2t02.flac
     6:35.680     113955884 B   cxx   --   ---xx   flac  0.7365  gd1981-12-05s2t03.flac
     4:56.920      85513004 B   cxx   --   ---xx   flac  0.7364  gd1981-12-05s2t04.flac
    10:15.267     177196844 B   cxx   --   ---xx   flac  0.7276  gd1981-12-05s2t05.flac
     7:55.867     137049644 B   cxx   --   ---xx   flac  0.6985  gd1981-12-05s2t06.flac
     5:21.747      92663084 B   cxx   --   ---xx   flac  0.7032  gd1981-12-05s2t07.flac
     6:50.400     118195244 B   cxx   --   ---xx   flac  0.7307  gd1981-12-05s2t08.flac
     5:23.600      93196844 B   cxx   --   ---xx   flac  0.7280  gd1981-12-05s2t09.flac
     9:06.120     157282604 B   cxx   --   ---xx   flac  0.7176  gd1981-12-05s2t10.flac
     9:05.587     157129004 B   cxx   --   ---xx   flac  0.7431  gd1981-12-05s2t11.flac
     5:00.528      86552168 B   cxx   --   ---xx   flac  0.7410  gd1981-12-05s2t12.flac
   157:50.778    2727585170 B                            0.7311  (22 files)

No errors occured.



Show Checksums
flac-md5
efb587bada49c567679cc0782566ad0c *gd1981-12-05s1t01.flac
3c04c5c91f94c61b6c5c1cfa2159805f *gd1981-12-05s1t02.flac
95984d0878259f44b74f29f08fb8ecdc *gd1981-12-05s1t03.flac
8aebfab196890f866fba5eb594207cc6 *gd1981-12-05s1t04.flac
ecb08150269772fa79d85ea216117a03 *gd1981-12-05s1t05.flac
f3c77d9bb62a652139e11e2882384948 *gd1981-12-05s1t06.flac
ae300ef1a840a32a1427d1f154a6964e *gd1981-12-05s1t07.flac
e65fb58c24558fb3b16c20147ba0bddc *gd1981-12-05s1t08.flac
d75a5e2a96dc19336d289209d84f7222 *gd1981-12-05s1t09.flac
51d4ca3f8e936b6bc8dc8e20fb5836e3 *gd1981-12-05s1t10.flac
7d66893d407bfc4fb0e2b5559e567561 *gd1981-12-05s2t01.flac
104694370a9c2154f498988c04b24c9d *gd1981-12-05s2t02.flac
dc5de6ce2257cd9f7c90f7a51f0194eb *gd1981-12-05s2t03.flac
f9fbb739a9cb5ff8df00c121a00d9b6b *gd1981-12-05s2t04.flac
d23ee1f57210ec05d4919b67dce7a81b *gd1981-12-05s2t05.flac
b9225db161efb88fd4376b51605ac4a8 *gd1981-12-05s2t06.flac
2af0f7b3f562b80e5119b520726be55b *gd1981-12-05s2t07.flac
ea184d44b6217ed0e2a3683a449f7366 *gd1981-12-05s2t08.flac
1faaabbe7af28065da80e68070f9197a *gd1981-12-05s2t09.flac
a6c6c951e8b979153d3dc3c8ead32365 *gd1981-12-05s2t10.flac
82d429e7a7d652b3b522c661da40be46 *gd1981-12-05s2t11.flac
51e2f0b44e06172f698a8db8e23425fe *gd1981-12-05s2t12.flac
ffp
gd1981-12-05s1t01.flac:d372be51d87d7b93e763105fe8ced7eb
gd1981-12-05s1t02.flac:6ad084549d00fc28d7d06abc21e9e531
gd1981-12-05s1t03.flac:827e649cca9fdf6c114e1846e2555333
gd1981-12-05s1t04.flac:2575356e33a92902d073b8407cb2e6fc
gd1981-12-05s1t05.flac:c8c0a048644169852c427ddf143f44f6
gd1981-12-05s1t06.flac:38b21671d56f53aef2d77d5fb6889bc1
gd1981-12-05s1t07.flac:252ff56fe1965e226348838ca7bd980b
gd1981-12-05s1t08.flac:eb732636a79b106bc35ced30447c6c4d
gd1981-12-05s1t09.flac:83b1d5cacc33f2fcc0f19d5fb3bed5cd
gd1981-12-05s1t10.flac:a1c3f7b0a148b0cf7b26c9ab57a7a417
gd1981-12-05s2t01.flac:ddf490d390dc88eadd56702d146ce97d
gd1981-12-05s2t02.flac:4b4320bf15b937f25133854ad2bcb756
gd1981-12-05s2t03.flac:f3e983fc421f514347fd4ea9ead55eb9
gd1981-12-05s2t04.flac:d59b9e91688eee643276b3f72891cb92
gd1981-12-05s2t05.flac:06e080a832d66d1bd63b085a480d8459
gd1981-12-05s2t06.flac:a281a4fd7e22b50795ab9bb6b1e57276
gd1981-12-05s2t07.flac:0dda52da8b6dfa7cc1a74a55060b8c13
gd1981-12-05s2t08.flac:0938690398c38dcff5d128030494009c
gd1981-12-05s2t09.flac:6466d07178255385e41c8bf3bf0c7fd6
gd1981-12-05s2t10.flac:feb101242fba5b66e524796c7717f006
gd1981-12-05s2t11.flac:a8e5cbd2d796214dfb845617f3e6006f
gd1981-12-05s2t12.flac:be975e34184937c9e1033f1022805a65

Comments
Add Comment
Other Sources (comments)
Master Soundboard Cassette... (1) flac16; Recording by... (0) flac16; Recording... (2) flac16; Updated... (0) flac16; Recording... (0) flac16; AUD: Beyers... (1)
Date User Comment
08/29/2017 nfagdtrfb Clarification: the mics were Beyer-dynamic M-160's.