Browse Collections Artists Sources   Search Dates

Add Show    List Management    Help


Grateful Dead 12/05/81
Market Square Arena, Indianapolis, IN
Comments Add Comment    Source Collectors    Add to Collection    Add to Want List    History
Source # 139180 Other Sources
Entered by Matt Vernon
Checksums ffp , flac-md5
Disc Counts 0 / 0
Media Size Compressed: 966.76 MB (1013719040 bytes)
Uncompressed: 1.56 GB (1670647736 bytes)
Date Circulated
Date Added
08/28/2017
08/28/2017
Source Summary flac16; AUD: Beyers mics > lead deck (Richie Stankiewicz) > Sony TC-D5 > Hitachi UD-90's, FOB recording by Craig L (patched out). Transfer: MAC > Nakamichi CR-5A > Edirol FA-66 > Wavelab 2448 > CD-Wave (24bit output) > R8Brain > TLH > FLAC 1644 tagged. Transfer by Andrew F. 08/2017 
  Archive
Source Information - Download Text | Download Zip
GRATEFUL DEAD
Market Square Arena
Indianapolis IN
12-05-1981

16bit/44.1kHz file-set

s1t01 Alabama Getaway >
s1t02 Promised Land
s1t03 Friend of the Devil >
s1t04 C.C. Rider (double-time)
s1t05 Cumberland Blues >
s1t06 El Paso
s1t07 Ramble on Rose
s1t08 Passenger
s1t09 Birdsong >
s1t10 Let it Grow

s2t01 Shakedown Street >
s2t02 Lost Sailor >
s2t03 Saint of Circumstance
s2t04 Big Railroad Blues
s2t05 Playin' in the Band >
s2t06 Drums >
s2t07 Space >
s2t08 The Wheel >
s2t09 Playin' in the Band Reprise >
s2t10 Stella Blue >
s2t11 Sugar Magnolia
s2t12 Encore: One More Saturday Night

AUD: Beyers mics > lead deck (Richie Stankiewicz) > Sony TC-D5 >
Hitachi UD-90's, FOB recording by Craig L (patched out).

Transfer: MAC > Nakamichi CR-5A > Edirol FA-66 > Wavelab 2448 >
CD-Wave (24bit output) > R8Brain > TLH > FLAC 1644 tagged.
Transfer by Andrew F. 08/2017

Note: P.A. mix issues in Alabama. First 0:11 Alabama left mic
(mono) only. ID-5488 patches crowd end of Ramble on Rose (AUD)
7:07 > 7:11, and re-mixed (SBD) portion of Drums 5:06 > 7:38.

    length     expanded size    cdr  WAVE problems  fmt   ratio  filename
     4:49.52       51101948 B   ---   --   ---xx   flac  0.5995  gd1981-12-05s1t01.flac
     4:22.00       46216844 B   ---   --   ---xx   flac  0.6155  gd1981-12-05s1t02.flac
     8:11.59       86751212 B   ---   --   ---xx   flac  0.5979  gd1981-12-05s1t03.flac
     6:41.44       70839932 B   ---   --   ---xx   flac  0.6163  gd1981-12-05s1t04.flac
     5:11.15       54895724 B   ---   --   ---xx   flac  0.6247  gd1981-12-05s1t05.flac
     4:51.43       51433580 B   ---   --   ---xx   flac  0.6114  gd1981-12-05s1t06.flac
     7:11.36       76113116 B   ---   --   ---xx   flac  0.6133  gd1981-12-05s1t07.flac
     5:08.41       54427676 B   ---   --   ---xx   flac  0.6362  gd1981-12-05s1t08.flac
    10:30.41      111228476 B   ---   --   ---xx   flac  0.6207  gd1981-12-05s1t09.flac
    10:30.24      111188492 B   ---   --   ---xx   flac  0.6282  gd1981-12-05s1t10.flac
    12:46.56      135254156 B   ---   --   ---xx   flac  0.6093  gd1981-12-05s2t01.flac
     7:03.44       74720732 B   ---   --   ---xx   flac  0.5871  gd1981-12-05s2t02.flac
     6:35.51       69797996 B   ---   --   ---xx   flac  0.6151  gd1981-12-05s2t03.flac
     4:56.69       52376732 B   ---   --   ---xx   flac  0.6148  gd1981-12-05s2t04.flac
    10:15.20      108533084 B   ---   --   ---xx   flac  0.6006  gd1981-12-05s2t05.flac
     7:55.65       83942924 B   ---   --   ---xx   flac  0.5577  gd1981-12-05s2t06.flac
     5:21.56       56756156 B   ---   --   ---xx   flac  0.5607  gd1981-12-05s2t07.flac
     6:50.30       72394604 B   ---   --   ---xx   flac  0.6058  gd1981-12-05s2t08.flac
     5:23.45       57083084 B   ---   --   ---xx   flac  0.6005  gd1981-12-05s2t09.flac
     9:06.09       96335612 B   ---   --   ---xx   flac  0.5839  gd1981-12-05s2t10.flac
     9:05.44       96241532 B   ---   --   ---xx   flac  0.6255  gd1981-12-05s2t11.flac
     5:00.40       53014124 B   ---   --   ---xx   flac  0.6242  gd1981-12-05s2t12.flac
   157:50.59     1670647736 B                            0.6066  (22 files)

No errors occured.



Show Checksums
ffp
gd1981-12-05s1t01.flac:05422630e646e54c5c62a8da2f99d546
gd1981-12-05s1t02.flac:87d2979a3f540930be72799806270a34
gd1981-12-05s1t03.flac:aa25a9ba2ca9d692729bba146962e603
gd1981-12-05s1t04.flac:27760ceb4f21a58b678e8dabbc1904b0
gd1981-12-05s1t05.flac:806a5d14d14a7a9a874812568654ae6d
gd1981-12-05s1t06.flac:52f77138a79131072cf21ceef49a12ad
gd1981-12-05s1t07.flac:7602ebd6b0fec54cd3df65a6071152c6
gd1981-12-05s1t08.flac:b7dc96e60d611b6fa837ab2f3610899e
gd1981-12-05s1t09.flac:f5c990be9752754e476cdebb1fccd291
gd1981-12-05s1t10.flac:0122a4793badf534bdb6e43aebc08a87
gd1981-12-05s2t01.flac:398c3d3c058a01fc264a9b5a7360b169
gd1981-12-05s2t02.flac:e0fec9e6b9f18b98edd0b0a7886c11c0
gd1981-12-05s2t03.flac:a26365f702e753d9c35b94925b8ee997
gd1981-12-05s2t04.flac:4430bb4a2b5b193d2b6771de01cfc6bd
gd1981-12-05s2t05.flac:c6a247866c2074f4bbe4607d57cfe561
gd1981-12-05s2t06.flac:8a40f9cf747bbb905b9668b02a19585b
gd1981-12-05s2t07.flac:f738f2e39ea96a183058be41b5d0079c
gd1981-12-05s2t08.flac:373efc1b1228920a42b45c1848d27d6a
gd1981-12-05s2t09.flac:581c5cab5cb5eae7d629a146bedc87c0
gd1981-12-05s2t10.flac:36c7c99e177e489ae65f8dff6646f49f
gd1981-12-05s2t11.flac:125c4dbbb7258f19af28775382d6051e
gd1981-12-05s2t12.flac:9709dd47c8a54cdbaa381f5213475867
flac-md5
22adc65fc498bd3449388d8b68fc596a *gd1981-12-05s1t01.flac
f10b2511d085abbce0fdbb2e70aba55b *gd1981-12-05s1t02.flac
8957b383cf0d25a9437e8d21511d329d *gd1981-12-05s1t03.flac
30ffc6dc80d00b6f5a46ad5a15fc4a19 *gd1981-12-05s1t04.flac
18b4d6212b7beaadc544e7fb4108574e *gd1981-12-05s1t05.flac
1ad7e9454c19ee817918ed5d61ce273b *gd1981-12-05s1t06.flac
5a2750a7d0e24743bbf4390f464342f1 *gd1981-12-05s1t07.flac
1aefd0879d3c38e697de9e3d4624b0d6 *gd1981-12-05s1t08.flac
17c503400ddfea9ab42569718af4e56a *gd1981-12-05s1t09.flac
544ea31853d256bb3e3b7d77a9d28318 *gd1981-12-05s1t10.flac
8141861dbd9cb90751a45bbebbd0975d *gd1981-12-05s2t01.flac
ad585595985349494d84f90ef9d504fe *gd1981-12-05s2t02.flac
a9bbb7996391583136d7beab1acbffae *gd1981-12-05s2t03.flac
b11a8aa70fa9cfec94f6e0325691a710 *gd1981-12-05s2t04.flac
281d5b077ab9dd8adafda621cb598140 *gd1981-12-05s2t05.flac
c0f2b627bf08f108f2cf1c910f444b1f *gd1981-12-05s2t06.flac
06122f6117d086d77974a2aef53965d5 *gd1981-12-05s2t07.flac
663fdd7684f54060a65db62cee8ad4d4 *gd1981-12-05s2t08.flac
48e7f8501ef171eb457d8771e281a5a9 *gd1981-12-05s2t09.flac
7410a4d456baff0a5f1040a21b98fdd2 *gd1981-12-05s2t10.flac
f074dbe67d7c6231e1d4c6824a84875d *gd1981-12-05s2t11.flac
41ca7a8d6daec1eb9a41f955ef0b2583 *gd1981-12-05s2t12.flac

Comments
Add Comment
Other Sources (comments)
Master Soundboard Cassette... (1) flac16; Recording by... (0) flac16; Recording... (2) flac16; Updated... (0) flac16; Recording... (0) flac24; AUD: Beyers... (1)
Date User Comment
08/29/2017 nfagdtrfb Clarification: the mics were Beyer-dynamic M-160's.