Browse Collections Artists Sources   Search Dates

Add Show    List Management    Help


Grateful Dead 12/12/93
San Diego Sports Arena, San Diego, CA
Comments Add Comment    Source Collectors    Add to Collection    Add to Want List    History
Source # 139212 Other Sources
Entered by Matt Vernon
Checksums ffp , flac-md5
Disc Counts 0 / 0
Media Size Compressed: 843.12 MB (884076544 bytes)
Date Circulated
Date Added
05/31/2017
08/31/2017
Source Summary flac16; Recording Info: SBD > Cassette Master (TDK SA-X100/Tascam Deck); Transfer Info: Cassette Master (Nakamichi CR-7A) > Tascam DA-3000 (DSF 1-bit/5.8 MHz) > KORG AudioGate 4 > Adobe Audition CC 2015 > Samplitude Pro X3 Suite > FLAC/24; All Transfers and Mastering By Charlie Miller, This is 139183 24 bit -> 16 bit 
  Archive
Source Information - Download Text | Download Zip
Grateful Dead - December 12, 1993
San Diego Sports Arena - San Diego, CA

Recording Info:
SBD > Cassette Master (TDK SA-X100/Tascam Deck)

Transfer Info:
Cassette Master (Nakamichi CR-7A) > Tascam DA-3000 (DSF 1-bit/5.8 MHz) >
KORG AudioGate 4 > Adobe Audition CC 2015 > Samplitude Pro X3 Suite > FLAC/24
(1 Disc FLAC)

All Transfers and Mastering By Charlie Miller
[email protected]
April 11, 2017

Notes:
-- Two sets of masters were used to make this show complete
-- This is 139183 24 bit -> 16 bit

Set 1:
01 - Cold Rain And Snow
02 - New Minglewood Blues
03 - Friend Of The Devil
04 - Black Throated Wind
05 - Althea
06 - Beat It On Down The Line
07 - Bird Song >
08 - Promised Land

Set 2:
09 - Shakedown Street
10 - Samson And Delilah
11 - Ship Of Fools
12 - Truckin' >
13 - Nobody's Fault But Mine >
14 - That Would Be Something >
15 - Drums >
16 - Space >
17 - The Wheel >
18 - All Along The Watchtower >
19 - Stella Blue >
20 - Around And Around

Encore:
21 - Encore Break
22 - I Fought The Law


SHNTOOL OUTPUT:
    length     expanded size    cdr  WAVE problems  fmt   ratio  filename
     6:29.73       68791340 B   ---   --   ---xx   flac  0.5738  01 Cold Rain And Snow.flac
     8:24.60       89046764 B   ---   --   ---xx   flac  0.5633  02 New Minglewood Blues.flac
     7:46.05       82214204 B   ---   --   ---xx   flac  0.5571  03 Friend Of The Devil.flac
     6:32.09       69170012 B   ---   --   ---xx   flac  0.5496  04 Black Throated Wind.flac
     7:25.07       78514508 B   ---   --   ---xx   flac  0.5580  05 Althea.flac
     3:08.27       33226748 B   ---   --   ---xx   flac  0.6023  06 Beat It On Down The Line.flac
     8:26.06       89272556 B   ---   --   ---xx   flac  0.5708  07 Bird Song.flac
     4:06.51       43514396 B   ---   --   ---xx   flac  0.6050  08 Promised Land.flac
    11:35.19      122642732 B   ---   --   ---xx   flac  0.5880  09 Shakedown Street.flac
     7:54.45       83719484 B   ---   --   ---xx   flac  0.5899  10 Samson And Delilah.flac
     7:53.41       83533676 B   ---   --   ---xx   flac  0.5661  11 Ship Of Fools.flac
     6:39.20       70430684 B   ---   --   ---xx   flac  0.6118  12 Truckin'.flac
     2:31.42       26735228 B   ---   --   ---xx   flac  0.5283  13 Nobody's Fault But Mine.flac
     3:40.38       38897420 B   ---   --   ---xx   flac  0.5456  14 That Would Be Something.flac
    16:44.47      177216188 B   ---   --   ---xx   flac  0.4893  15 Drums.flac
     9:48.52      103845548 B   ---   --   ---xx   flac  0.4631  16 Space.flac
     5:00.55       53049404 B   ---   --   ---xx   flac  0.5914  17 The Wheel.flac
     6:19.55       66985004 B   ---   --   ---xx   flac  0.5926  18 All Along The Watchtower.flac
     8:07.45       86012684 B   ---   --   ---xx   flac  0.5319  19 Stella Blue.flac
     6:54.65       73182524 B   ---   --   ---xx   flac  0.5819  20 Around And Around.flac
     2:09.13       22786220 B   ---   --   ---xx   flac  0.3405  21 Encore Break.flac
     3:08.13       33193820 B   ---   --   ---xx   flac  0.6114  22 I Fought The Law.flac
   150:47.38     1595981144 B                            0.5539  (22 files)



Show Checksums
ffp
01 Cold Rain And Snow.flac:2f0ad3c62007a4caf5b0ce1a5e6073cc
02 New Minglewood Blues.flac:273ab407e4e90e7a67af275de24e38ea
03 Friend Of The Devil.flac:c1b30191bb692614a43b5a6a8da2f1de
04 Black Throated Wind.flac:9eef7d65400cbc687f57a49acea7f535
05 Althea.flac:edacf1013586f2a7a8a3dc497928af98
06 Beat It On Down The Line.flac:eb50dc708f60de39ad1b1158f56e9aa1
07 Bird Song.flac:c018710e23a1e323e009d8faf9f285bf
08 Promised Land.flac:a6eb9b94f2939e3ab74ac5c897ae6ba8
09 Shakedown Street.flac:556a802b6ad8d1b3c115c92245e137fa
10 Samson And Delilah.flac:3f2fa05f6d5961abcf26d8addaf9c4c0
11 Ship Of Fools.flac:75c88bdd309128ee7161116b99573ee6
12 Truckin'.flac:7d83637bce440e67c03f32d5630882d0
13 Nobody's Fault But Mine.flac:3a42478e7122fa236df6ba692cef1801
14 That Would Be Something.flac:6ebc690b02843eda5f7a60f406d186de
15 Drums.flac:38e9b8a8422cb9c81590198367463169
16 Space.flac:4638f72fe9c6ebdb8af117f37fcbbeae
17 The Wheel.flac:d974d263d3a23ef6c8403f1c77b008d1
18 All Along The Watchtower.flac:4d88831a28887d5c8b7b95756323be0d
19 Stella Blue.flac:d839a17df3a67d556180028d1f25e8d4
20 Around And Around.flac:4bdf679ce5e205fc76df01d11b52ed83
21 Encore Break.flac:fef734f1dbb92dfa894fa48bb9a048ac
22 I Fought The Law.flac:02da8b94d6d16dda773bbee3e489695a
flac-md5
45bf2c60858ff6718dde40e67b553fe8 *01 Cold Rain And Snow.flac
d21d10b05929a9a0111d129e1819b8c9 *02 New Minglewood Blues.flac
14324000f9957f85dc79e72f64d1d3f0 *03 Friend Of The Devil.flac
9dc97d96019785a4e880a86e9c14c832 *04 Black Throated Wind.flac
952b53fb0de93ef3ace9703c6d0c5e88 *05 Althea.flac
34ac180851b0ed9a91d4ac6a9d284f8e *06 Beat It On Down The Line.flac
debee515cb857c7ebcda90d67c3d4edc *07 Bird Song.flac
6b9e8d905807a81d0345a9bf96ffaf3e *08 Promised Land.flac
13067fe39b94eea7fe92aaa12aa7ce53 *09 Shakedown Street.flac
533f6eaff40c9f1b9afc77237ed9eac7 *10 Samson And Delilah.flac
1d0c2522dba5e46d7e1f7fb00092ccf0 *11 Ship Of Fools.flac
7d0a9406e3c8cda2159b04875453fd4f *12 Truckin'.flac
30444d1206efe1548d4e8ff6484eebc3 *13 Nobody's Fault But Mine.flac
c68b45881cccbf2b452c89da0360d5cc *14 That Would Be Something.flac
8867434cefb08a349804a601e59f901f *15 Drums.flac
291dca1bff0468d54e77fc18168206ee *16 Space.flac
4557efe558d8e5b7fa4b6d57db7cad01 *17 The Wheel.flac
9f5d5f29323f420404cb83967234cf28 *18 All Along The Watchtower.flac
8a07f104625c30a2c2461134d0c53025 *19 Stella Blue.flac
5064b0869ab79d77882083bbbaa145b9 *20 Around And Around.flac
f382ea9672546df312c1ac58dfc0774a *21 Encore Break.flac
efdccc5765efcc0524410f7349c4a70a *22 I Fought The Law.flac

Comments
Add Comment
Other Sources (comments)
MK4 FOB aud > DAT(s) > CDR;... (0) Source: Set 2 SBD > DAT >... (1) flac16; Recording-... (0) flac16; Schoeps... (0) flac16; Recording... (0) flac16; Source:... (0) flac24; Recording... (0)
Date User Comment