Browse Collections Artists Sources   Search Dates

Add Show    List Management    Help


Grateful Dead 04/20/83
Providence Civic Center, Providence, RI
Comments Add Comment    Source Collectors    Add to Collection    Add to Want List    History
Source # 139213 Other Sources
Entered by Matt Vernon
Checksums ffp , flac-md5
Disc Counts 0 / 0
Media Size Compressed: 1.48 GB (1583882126 bytes)
Uncompressed: 2.13 GB (2289365422 bytes)
Date Circulated
Date Added
08/31/2017
08/31/2017
Source Summary flac24; Set 1 Recording Info: (FOB) Beyer M160 > Sony TC-D5M > Cassette Master (Sony WM-D6C/Maxell UDXL-II); Transfer Info: Cassette Master (Nakamichi CR-7A) > Tascam DA-3000 (DSF 1-bit/5.8 MHz) > KORG AudioGate 4 > Adobe Audition CC 2015 > Samplitude Pro X3 Suite > FLAC/24; Recorded By Charlie Miller 
  Archive
Source Information - Download Text | Download Zip
Grateful Dead - April 20, 1983
Providence Civic Center - Providence, RI

Recording Info:
(FOB) Beyer M160 > Sony TC-D5M > Cassette Master (Sony WM-D6C/Maxell UDXL-II)

Transfer Info:
Cassette Master (Nakamichi CR-7A) > Tascam DA-3000 (DSF 1-bit/5.8 MHz) >
KORG AudioGate 4 > Adobe Audition CC 2015 > Samplitude Pro X3 Suite > FLAC/24
(1 Disc FLAC)

Recorded By Charlie Miller
[email protected]
August 31, 2017

Notes:
-- There were PA problems throughout the show
-- I patched out of Sennheiser 421's for Set 2 + Encore
-- My master cassette has been played to death and sounds like it

Set 1:
01 - Touch Of Grey >
02 - Promised Land
03 - Loser
04 - New Minglewood Blues
05 - Ramble On Rose
06 - Me And My Uncle >
07 - Cumberland Blues >
08 - Looks Like Rain
09 - China Cat Sunflower >
10 - I Know You Rider

Encore:
11 - Don't Ease Me In



SHNTOOL OUTPUT:
    length     expanded size    cdr  WAVE problems  fmt   ratio  filename
     7:05.332     244991210 B   cxx   --   ---xx   flac  0.6940  01 Touch Of Grey.flac
     4:29.645     155315426 B   cxx   --   ---xx   flac  0.6901  02 Promised Land.flac
     7:16.228     251267570 B   cxx   --   ---xx   flac  0.6850  03 Loser.flac
     8:10.881     282747416 B   cxx   --   ---xx   flac  0.6904  04 New Minglewood Blues.flac
     7:25.326     256507634 B   cxx   --   ---xx   flac  0.6871  05 Ramble On Rose.flac
     3:10.853     109931156 B   cxx   --   ---xx   flac  0.6833  06 Me And My Uncle.flac
     6:19.218     218429516 B   cxx   --   ---xx   flac  0.6965  07 Cumberland Blues.flac
     7:32.954     260901506 B   cxx   --   ---xx   flac  0.6904  08 Looks Like Rain.flac
     6:19.618     218660162 B   cxx   --   ---xx   flac  0.6946  09 China Cat Sumflower.flac
     5:25.813     187668188 B   cxx   --   ---xx   flac  0.6954  10 I Know You Rider.flac
     2:58.725     102945638 B   cxx   --   ---xx   flac  0.7125  11 Don't Ease Me In.flac
    66:14.592    2289365422 B                            0.6918  (11 files)


Show Checksums
ffp
01 Touch Of Grey.flac:fbb28427fb92626de500f5de80f5bb81
02 Promised Land.flac:708e556c70b5a5c3cd12aed1aaafcaac
03 Loser.flac:bd75e48131002c537c1bf4886f9fcae7
04 New Minglewood Blues.flac:963d5401bcb40c42d4c342ec89b328c5
05 Ramble On Rose.flac:9346fa319709bc7818aae3172d8c2b81
06 Me And My Uncle.flac:9e5be3268af806e2d605cac8e0501d22
07 Cumberland Blues.flac:8f3bef66f633f58126ebabeb395e4f2c
08 Looks Like Rain.flac:08a88f593e30d0247c0528f39fd6b24e
09 China Cat Sumflower.flac:cfc430fb13022ed6e8f60d1a0917310b
10 I Know You Rider.flac:9c9f463c49184ff5928353b75d0cb676
11 Don't Ease Me In.flac:efa0c979157dcb8e854e247264da57fe
flac-md5
8b06cea2215d73d770c4c90c1a16ef5e *01 Touch Of Grey.flac
b0c15ecf1f85f955ddbe31466eeeac3e *02 Promised Land.flac
64d5fbb014a4119a79175b8534b35702 *03 Loser.flac
6ceed9a3ef78175dc4aa05400efbd501 *04 New Minglewood Blues.flac
e0ac8b29ac8678196abfc89af23e2a8b *05 Ramble On Rose.flac
eb7ee09b9c084c716c21b77f51e00e4b *06 Me And My Uncle.flac
0ac993d319bfe5d5d941caf293ca7c55 *07 Cumberland Blues.flac
faa04aca2f39cf99429a66cf2875bd6b *08 Looks Like Rain.flac
39949359bf9a3bda87d45d6a767895ca *09 China Cat Sumflower.flac
576350c5ce9a76d079e18aaa629d035d *10 I Know You Rider.flac
7c46dbc3b0a04f29b6519d7672b8c1f8 *11 Don't Ease Me In.flac

Comments
Add Comment
Other Sources (comments)
FOB-Senn. 421?s>Sony... (0) flac16; SBD> Master... (0) flac16; AUD:... (0) flac16; Nakamichi... (0) flac16; Beyer M160's... (1) flac24; AUD: 2x... (1) flac16; AUD: 2x... (1) flac16/48kHz;... (0) flac16; Set 1... (0) flac24; source: nak... (0)
Date User Comment
09/01/2017 [email protected] I forgot to mention that I lost the second set master.