Browse Collections Artists Sources   Search Dates

Add Show    List Management    Help


Grateful Dead 12/13/93
San Diego Sports Arena, San Diego, CA
Comments Add Comment    Source Collectors    Add to Collection    Add to Want List    History
Source # 139214 Other Sources
Entered by Matt Vernon
Checksums ffp , flac-md5
Disc Counts 0 / 0
Media Size Compressed: 878.47 MB (921145344 bytes)
Uncompressed: 1.52 GB (1637150376 bytes)
Date Circulated
Date Added
08/31/2017
08/31/2017
Source Summary flac16; Recording Info: SBD > Cassette Master (TDK SA-X100/Tascam Deck); Transfer Info: Cassette Master (Nakamichi CR-7A) > Tascam DA-3000 (DSF 1-bit/5.8 MHz) > KORG AudioGate 4 > Adobe Audition CC 2015 > Samplitude Pro X3 Suite > FLAC/24; All Transfers and Mastering By Charlie Miller, This is 139184 24 bit -> 16 bit 
  Archive
Source Information - Download Text | Download Zip
Grateful Dead - December 13, 1993
San Diego Sports Arena - San Diego, CA

Recording Info:
SBD > Cassette Master (TDK SA-X100/Tascam Deck)

Transfer Info:
Cassette Master (Nakamichi CR-7A) > Tascam DA-3000 (DSF 1-bit/5.8 MHz) >
KORG AudioGate 4 > Adobe Audition CC 2015 > Samplitude Pro X3 Suite > FLAC/24
(1 Disc FLAC)

All Transfers and Mastering By Charlie Miller
[email protected]
April 11, 2017

Notes:
-- Two sets of masters were used to make this show complete
-- This is 139184 24 bit -> 16 bit

Set 1:
01 - Feel Like A Stranger
02 - Ramble On Rose
03 - The Same Thing
04 - Brown Eyed Women
05 - Broken Arrow
06 - Easy Answers >
07 - Mississippi Half-Step Uptown Toodeloo

Set 2:
08 - Lucy In The Sky With Diamonds
09 - Man Smart (Woman Smarter)
10 - Way To Go Home
11 - Eyes Of The World >
12 - Drums >
13 - Space >
14 - The Last Time >
15 - Days Between >
16 - Throwing Stones

Encore:
17 - Encore Break
18 - Liberty


SHNTOOL OUTPUT:
    length     expanded size    cdr  WAVE problems  fmt   ratio  filename
     9:24.32       99564908 B   ---   --   ---xx   flac  0.5823  01 Feel Like A Stranger.flac
     8:03.45       85307084 B   ---   --   ---xx   flac  0.5637  02 Ramble On Rose.flac
     9:10.40       97114124 B   ---   --   ---xx   flac  0.5629  03 The Same Thing.flac
     6:17.25       66561644 B   ---   --   ---xx   flac  0.5867  04 Brown Eyed Women.flac
     4:58.39       52658972 B   ---   --   ---xx   flac  0.5728  05 Broken Arrow.flac
     7:46.30       82273004 B   ---   --   ---xx   flac  0.6011  06 Easy Answers.flac
     8:05.28       85619900 B   ---   --   ---xx   flac  0.5812  07 Mississippi Half-Step Uptown Toodeloo.flac
     5:12.36       55121516 B   ---   --   ---xx   flac  0.5968  08 Lucy In The Sky With Diamonds.flac
     9:44.28      103083500 B   ---   --   ---xx   flac  0.5861  09 Man Smart (Woman Smarter).flac
     6:31.54       69099452 B   ---   --   ---xx   flac  0.5960  10 Way To Go Home.flac
    16:48.15      177846524 B   ---   --   ---xx   flac  0.5565  11 Eyes Of The World.flac
    16:26.28      173996300 B   ---   --   ---xx   flac  0.4989  12 Drums.flac
    11:39.71      123470636 B   ---   --   ---xx   flac  0.4993  13 Space.flac
     5:55.19       62666732 B   ---   --   ---xx   flac  0.6150  14 The Last Time.flac
    11:25.39      120925772 B   ---   --   ---xx   flac  0.5629  15 Days Between.flac
     9:33.66      101232476 B   ---   --   ---xx   flac  0.5744  16 Throwing Stones.flac
     1:01.02       10765148 B   ---   --   ---xx   flac  0.4367  17 Encore Break.flac
     6:35.70       69842684 B   ---   --   ---xx   flac  0.5812  18 Liberty.flac
   154:40.67     1637150376 B                            0.5626  (18 files)



Show Checksums
ffp
01 Feel Like A Stranger.flac:495f5e3c82d8a80909a56cb9d0de9015
02 Ramble On Rose.flac:570ff86955ca777a6a2856211843c0fd
03 The Same Thing.flac:84d6b0aecca0900e7e4a240d4b74c5b6
04 Brown Eyed Women.flac:3ac2d8a81652dac7eea0ea7b042d28a2
05 Broken Arrow.flac:7c878f61b4ebd4422e7e579f42fb94a0
06 Easy Answers.flac:08048c22f9fde4d1d879e7ab130830bd
07 Mississippi Half-Step Uptown Toodeloo.flac:43d3804c1c7d651e5b1e1d747b13f37e
08 Lucy In The Sky With Diamonds.flac:b844c43c53bb6238a4b3a1919b40df9c
09 Man Smart (Woman Smarter).flac:946e899a6bc2bcf6ff21148ebb0457bd
10 Way To Go Home.flac:56a7183ade71183932347c7417239546
11 Eyes Of The World.flac:dde403120171e780e677bad44996128d
12 Drums.flac:82bd1c3f0a7ead3cdb92afb0b6426ea4
13 Space.flac:42c646c4066509cf7591743e3410403e
14 The Last Time.flac:bcef88a84535d8c63efa564d8db81add
15 Days Between.flac:be936c4e742aa1c47bd57c50045324d6
16 Throwing Stones.flac:16b0b11899959d61cc1cecebd11657e9
17 Encore Break.flac:474739fe4ea345632251089ecb96cb53
18 Liberty.flac:9e145f4da14e4dc65a841e6ae6e7abc7
flac-md5
bd4c106f39d55ef689bb50bc84629c84 *01 Feel Like A Stranger.flac
0cdf47346557aa0b7ca3ef16386e2488 *02 Ramble On Rose.flac
bf8662d2256d6227e86c5367ca657c2e *03 The Same Thing.flac
1a3fa9794f2b668be9677439320d4522 *04 Brown Eyed Women.flac
a189dd1aec121901eb8d9e64c1623c92 *05 Broken Arrow.flac
b32a5283b12576b1fd6254fa1ed2b6e0 *06 Easy Answers.flac
46f3e8d87baaae0d5f73396522c1c63b *07 Mississippi Half-Step Uptown Toodeloo.flac
07d02e7081e3f276bb1ccbf1ad12a41d *08 Lucy In The Sky With Diamonds.flac
04732a635ba08343f8bcf3e53d66040f *09 Man Smart (Woman Smarter).flac
b350e4a2113e58698cda020fc75176df *10 Way To Go Home.flac
19f3793ab11f26c6465dcd4b2d96b931 *11 Eyes Of The World.flac
99864669fec2073198a28f74c44f153f *12 Drums.flac
9d1d9cd261cb28cd694b9eb1e3792f48 *13 Space.flac
0e04d5f6e245d2fb7b966144ebc403e0 *14 The Last Time.flac
6e38fc6811ee7e4d67108311e25cef7d *15 Days Between.flac
62e3a14ff133852cfe47d4839ff034c8 *16 Throwing Stones.flac
fbed44744654f692adf56be9c3d24331 *17 Encore Break.flac
e1f3600d3c4d1138356efdc0a44924b2 *18 Liberty.flac

Comments
Add Comment
Other Sources (comments)
MK4 FOB aud > DAT(s) > CDR;... (0) Set 1: FOB(Schoeps MK4) >... (1) flac16; Sennheiser... (0) flac16/48;... (0) flac16; Soundcheck:... (0) flac16; Recording... (0) flac16; Schoeps... (0) flac24; Recording... (0)
Date User Comment