Browse Collections Artists Sources   Search Dates

Add Show    List Management    Help


Phish 03/01/03
Greensboro Coliseum, Greensboro, NC
Comments Add Comment    Source Collectors    Add to Collection    Add to Want List    History
Source # 139255 Other Sources
Entered by Matt Vernon
Checksums st5 , ffp
Disc Counts 0 / 0
Media Size
Date Circulated
Date Added

09/04/2017
Source Summary flac16 44.1khz Source: Neumann TLM170's> V2> ADC20> D8 (Mics were ran with the bass roll off on). Conversion: DA-P1> Prodif Plus> Samplitude 2496> CDWAV> MKW. Taped and Conversion: LEVI HUNT. Note: shn > flac8 by Xact. 
Source Information - Download Text | Download Zip
03/01/03 - Greensboro, NC

1: Chalk Dust Torture, Moma Dance, Foam, Lawn Boy, Character Zero, Divided Sky, Mist, Waves, Sample in a Jar

2: Rock and Roll, Wilson, Piper, Also Sprach Zarathustra, Wolfman's Brother, Boogie on Reggae Woman, Wading in the Velvet Sea, Run Like an Antelope, Carolina*

E: First Tube, You Enjoy Myself **


Source: Neumann TLM170's> V2> ADC20> D8 (Mics were ran with the             bass roll off on)

Conversion: DA-P1> Prodif Plus> Samplitude 2496> CDWAV> MKW

Taped and Conversion: LEVI HUNT [email protected]
                      DUDLEYS KITCHEN TRADING GROUP
                      HTTP://DB.ETREE.ORG/ACDCBAG32

    length     expanded size    cdr  WAVE problems  fmt   ratio  filename
     9:23.65       99466124 B   ---   --   ---xx    shn  0.6295  ph03-03-01d1t01.shn
     9:59.00      105663644 B   ---   --   ---xx    shn  0.6145  ph03-03-01d1t02.shn
    10:54.42      115464428 B   ---   --   ---xx    shn  0.5605  ph03-03-01d1t03.shn
     3:02.32       32180108 B   ---   --   ---xx    shn  0.5288  ph03-03-01d1t04.shn
     7:42.12       81525068 B   ---   --   ---xx    shn  0.6475  ph03-03-01d1t05.shn
    17:55.05      189641804 B   ---   --   ---xx    shn  0.5841  ph03-03-01d1t06.shn
     7:20.23       77670140 B   ---   --   ---xx    shn  0.4969  ph03-03-01d1t07.shn
     9:09.02       96848348 B   ---   --   ---xx    shn  0.5703  ph03-03-01d1t08.shn
     6:05.15       64421324 B   ---   --   ---xx    shn  0.6388  ph03-03-01d2t01.shn
    17:40.23      187038140 B   ---   --   ---xx    shn  0.6310  ph03-03-01d2t02.shn
    17:19.08      183298460 B   ---   --   ---xx    shn  0.5748  ph03-03-01d2t03.shn
     7:43.23       81727340 B   ---   --   ---xx    shn  0.5608  ph03-03-01d2t04.shn
     8:36.36       91107116 B   ---   --   ---xx    shn  0.5672  ph03-03-01d2t05.shn
     5:51.10       61939964 B   ---   --   ---xx    shn  0.5658  ph03-03-01d2t06.shn
     7:41.15       81355724 B   ---   --   ---xx    shn  0.5665  ph03-03-01d3t01.shn
    13:02.03      137951900 B   ---   --   ---xx    shn  0.6079  ph03-03-01d3t02.shn
     2:40.19       28268732 B   ---   --   ---xx    shn  0.5515  ph03-03-01d3t03.shn
     2:43.63       28901420 B   ---   --   ---xx    shn  0.5378  ph03-03-01d3t04.shn
     8:36.50       91140044 B   ---   --   ---xx    shn  0.6344  ph03-03-01d3t05.shn
    25:05.38      265571420 B   ---   --   ---xx    shn  0.5355  ph03-03-01d3t06.shn
   198:31.34     2101181248 B                            0.5829  (20 files)



Show Checksums
st5
be37616ea8e17bf9cd5b25a5516614c5 [shntool] ph03-03-01d1t01.shn
cbc7fd27a9b57ae4c903f90b442d496f [shntool] ph03-03-01d1t02.shn
89267a0e33844355bad2fb1eb298d32a [shntool] ph03-03-01d1t03.shn
b7909953cfaa7dae37db73f0013fbeb8 [shntool] ph03-03-01d1t04.shn
a859de8008cfa6d366cef01cab2505f3 [shntool] ph03-03-01d1t05.shn
14ae16cd9ad66ec69fd5f6ec3d43d455 [shntool] ph03-03-01d1t06.shn
f9e1d09eab6d415c37d20d544149a032 [shntool] ph03-03-01d1t07.shn
7cc64c2dfbc3adbc578df6b713e943de [shntool] ph03-03-01d1t08.shn
a3cb3b17def0272494743969321e3123 [shntool] ph03-03-01d2t01.shn
8e7989577fd854c955f691408b53ca2c [shntool] ph03-03-01d2t02.shn
de0a5c657ce7200e98d1cc7888dd93d4 [shntool] ph03-03-01d2t03.shn
ee77c37f57728e6d5174750b9a19521e [shntool] ph03-03-01d2t04.shn
8dfbe2046e043db1b29b3321d84340b4 [shntool] ph03-03-01d2t05.shn
ad096f4335c18e2e2bb53e7d7ddfa5ff [shntool] ph03-03-01d2t06.shn
2b0122bc6113f09a8784880d25a80683 [shntool] ph03-03-01d3t01.shn
af863cf760540c5f5e8cfef01315346c [shntool] ph03-03-01d3t02.shn
81d9476214baad58a368a50069c7aaa8 [shntool] ph03-03-01d3t03.shn
61cc07c70c8e1dcdc2b2b55a1ecd128e [shntool] ph03-03-01d3t04.shn
338b903d45c1d7ef9363ddb419dd3702 [shntool] ph03-03-01d3t05.shn
61c3d92cb2d2c139083379cb98f4e736 [shntool] ph03-03-01d3t06.shn
ffp
ph03-03-01d1t01.flac:be37616ea8e17bf9cd5b25a5516614c5
ph03-03-01d1t02.flac:cbc7fd27a9b57ae4c903f90b442d496f
ph03-03-01d1t03.flac:89267a0e33844355bad2fb1eb298d32a
ph03-03-01d1t04.flac:b7909953cfaa7dae37db73f0013fbeb8
ph03-03-01d1t05.flac:a859de8008cfa6d366cef01cab2505f3
ph03-03-01d1t06.flac:14ae16cd9ad66ec69fd5f6ec3d43d455
ph03-03-01d1t07.flac:f9e1d09eab6d415c37d20d544149a032
ph03-03-01d1t08.flac:7cc64c2dfbc3adbc578df6b713e943de
ph03-03-01d2t01.flac:a3cb3b17def0272494743969321e3123
ph03-03-01d2t02.flac:8e7989577fd854c955f691408b53ca2c
ph03-03-01d2t03.flac:de0a5c657ce7200e98d1cc7888dd93d4
ph03-03-01d2t04.flac:ee77c37f57728e6d5174750b9a19521e
ph03-03-01d2t05.flac:8dfbe2046e043db1b29b3321d84340b4
ph03-03-01d2t06.flac:ad096f4335c18e2e2bb53e7d7ddfa5ff
ph03-03-01d3t01.flac:2b0122bc6113f09a8784880d25a80683
ph03-03-01d3t02.flac:af863cf760540c5f5e8cfef01315346c
ph03-03-01d3t03.flac:81d9476214baad58a368a50069c7aaa8
ph03-03-01d3t04.flac:61cc07c70c8e1dcdc2b2b55a1ecd128e
ph03-03-01d3t05.flac:338b903d45c1d7ef9363ddb419dd3702
ph03-03-01d3t06.flac:61c3d92cb2d2c139083379cb98f4e736

Comments
Add Comment
Other Sources (comments)
FOB Schoeps mk4v (ORTF) >... (2) FOB B+K 4022 > Mini-Me >... (7) DPA (B+K) 4011 > Lunatec V2... (0) LivePhish SHN download;... (0) FOB Schoeps mk4 > kcy >... (5) Nakamichi CM700/cp701 >... (0) Microtech Gefell M210 >... (0) flac16; Schoeps mk41... (1) flac16 44.1khz ... (0)
Date User Comment
09/04/2017 mvernon When aded to db in September 2017, shn > flac conversion was performed by mvernon. st5 checksum from shn files included for reference