Browse Collections Artists Sources   Search Dates

Add Show    List Management    Help


Grateful Dead 04/20/83
Providence Civic Center, Providence, RI
Comments Add Comment    Source Collectors    Add to Collection    Add to Want List    History
Source # 139277 Other Sources
Entered by Matt Vernon
Checksums ffp , flac-md5
Disc Counts 0 / 0
Media Size Compressed: 426.39 MB (447098880 bytes)
Uncompressed: 668.64 MB (701119924 bytes)
Date Circulated
Date Added
09/06/2017
09/06/2017
Source Summary flac16; Set 1 Recording Info: (FOB) Beyer M160 > Sony TC-D5M > Cassette Master (Sony WM-D6C/Maxell UDXL-II); Transfer Info: Cassette Master (Nakamichi CR-7A) > Tascam DA-3000 (DSF 1-bit/5.8 MHz) > KORG AudioGate 4 > Adobe Audition CC 2015 > Samplitude Pro X3 Suite > FLAC/24; Recorded By Charlie Miller, This is 139213 24 bit -> 16 bit 
  Archive
Source Information - Download Text | Download Zip
Grateful Dead - April 20, 1983
Providence Civic Center - Providence, RI

Recording Info:
(FOB) Beyer M160 > Sony TC-D5M > Cassette Master (Sony WM-D6C/Maxell UDXL-II)

Transfer Info:
Cassette Master (Nakamichi CR-7A) > Tascam DA-3000 (DSF 1-bit/5.8 MHz) >
KORG AudioGate 4 > Adobe Audition CC 2015 > Samplitude Pro X3 Suite > FLAC/24
(1 DVD FLAC)

Recorded By Charlie Miller
[email protected]
August 31, 2017

Notes:
-- There were PA problems throughout the show
-- I patched out of Sennheiser 421's for Set 2 + Encore
-- My master cassette has been played to death and sounds like it
-- This is 139213 24 bit -> 16 bit

Set 1:
01 - Touch Of Grey >
02 - Promised Land
03 - Loser
04 - New Minglewood Blues
05 - Ramble On Rose
06 - Me And My Uncle >
07 - Cumberland Blues >
08 - Looks Like Rain
09 - China Cat Sunflower >
10 - I Know You Rider

Encore:
11 - Don't Ease Me In



SHNTOOL OUTPUT:
    length     expanded size    cdr  WAVE problems  fmt   ratio  filename
     7:05.24       75026492 B   ---   --   ---xx   flac  0.6421  01 Touch Of Grey.flac
     4:29.49       47566892 B   ---   --   ---xx   flac  0.6340  02 Promised Land.flac
     7:16.17       76950428 B   ---   --   ---xx   flac  0.6155  03 Loser.flac
     8:10.66       86591276 B   ---   --   ---xx   flac  0.6383  04 New Minglewood Blues.flac
     7:25.24       78554492 B   ---   --   ---xx   flac  0.6242  05 Ramble On Rose.flac
     3:10.64       33666572 B   ---   --   ---xx   flac  0.6119  06 Me And My Uncle.flac
     6:19.17       66895628 B   ---   --   ---xx   flac  0.6495  07 Cumberland Blues.flac
     7:32.71       79899836 B   ---   --   ---xx   flac  0.6319  08 Looks Like Rain.flac
     6:19.47       66966188 B   ---   --   ---xx   flac  0.6454  09 China Cat Sumflower.flac
     5:25.61       57473516 B   ---   --   ---xx   flac  0.6485  10 I Know You Rider.flac
     2:58.55       31528604 B   ---   --   ---xx   flac  0.6994  11 Don't Ease Me In.flac
    66:14.45      701119924 B                            0.6377  (11 files)




Show Checksums
ffp
01 Touch Of Grey.flac:c230022dabb9835709fcbd7c21198892
02 Promised Land.flac:9aca2daca4df7275edcf32099ed0c3fb
03 Loser.flac:4c0e9b67d985b8ddd7ffd19cc07956d0
04 New Minglewood Blues.flac:9f99ba39f20edd0dd2ba99e20139e82d
05 Ramble On Rose.flac:d02c1402e3acbb97f350232e070e060c
06 Me And My Uncle.flac:8461e74d1e6ab21cf4c2e6af83a92e50
07 Cumberland Blues.flac:f000b40d71dbad9a1d026ed9f2c5ab8a
08 Looks Like Rain.flac:47b43afc54a38cb7163fe5ac33bc7503
09 China Cat Sumflower.flac:419c0522f2c4ed1596000a55192aa940
10 I Know You Rider.flac:e4953c4f9dcdee75c95dfa098ed4ef06
11 Don't Ease Me In.flac:f5d0f8ca393fc3bc2c3b0a16a25c8d19
flac-md5
a4e6a92320cab50fd66d9c2d4465ed7c *01 Touch Of Grey.flac
733ed61ee175491a4df73df2713ed224 *02 Promised Land.flac
55ad04165384e06f638037858ab19dc5 *03 Loser.flac
c747c337f2bef6bde664d16989e6fb26 *04 New Minglewood Blues.flac
d6aecb0e19e6d04111654672dd94dc00 *05 Ramble On Rose.flac
40474eb3097d0329040eca34ca47b306 *06 Me And My Uncle.flac
9e2c310373daa725a60f31812208f75e *07 Cumberland Blues.flac
8f7b78b41c712e285b3a42240348aa2f *08 Looks Like Rain.flac
665a09482f74ef6d843ae44501df6311 *09 China Cat Sumflower.flac
d6c6c489c37c53ecbd31f101cfd55453 *10 I Know You Rider.flac
11a65be46424c91e52a0b1233752bf52 *11 Don't Ease Me In.flac

Comments
Add Comment
Other Sources (comments)
FOB-Senn. 421?s>Sony... (0) flac16; SBD> Master... (0) flac16; AUD:... (0) flac16; Nakamichi... (0) flac16; Beyer M160's... (1) flac24; AUD: 2x... (1) flac16; AUD: 2x... (1) flac24; Set 1... (1) flac16/48kHz;... (0) flac24; source: nak... (0)
Date User Comment