Browse Collections Artists Sources   Search Dates

Add Show    List Management    Help


Grateful Dead 09/10/83
Santa Fe Downs, Santa Fe, NM
Comments Add Comment    Source Collectors    Add to Collection    Add to Want List    History
Source # 139299 Other Sources
Entered by Matt Vernon
Checksums ffp , flac-md5
Disc Counts 0 / 0
Media Size Compressed: 881.47 MB (924287941 bytes)
Uncompressed: 1.5 GB (1611527036 bytes)
Date Circulated
Date Added
09/07/2017
09/07/2017
Source Summary flac16/48kHz; Recording Info: SBD > Cassette Master > Reel > Dat (48k); Transfer Info: Dat (Sony PCM-R500) > Tascam DA-3000 > Samplitude Pro X3 Suite > FLAC/48k; All Transfers and Mastering By Charlie Miller 
  Archive
Source Information - Download Text | Download Zip
Grateful Dead - September 10, 1983
Downs of Santa Fe - Santa Fe, NM

Recording Info:
SBD > Cassette Master > Reel > Dat (48k)

Transfer Info:
Dat (Sony PCM-R500) > Tascam DA-3000 > Samplitude Pro X3 Suite > FLAC/48k
(1 DVD FLAC)

All Transfers and Mastering By Charlie Miller
[email protected]
September 7, 2017

Patch Info:
(FOB) Sennheiser 441 > PCM > Dat supplies:
Big Railroad Blues (0:00 - 0:19)
Man Smart (Woman Smarter) (0:00 - 0:09)
China Doll (7:54 - 8:09)
Cold Rain And Snow (0:00 - 0:10)

Notes:
-- Thanks to Rob Eaton for the Dat
-- Thanks to Jeff Silberman for the patch source

Set 1:
01 - The Music Never Stopped
02 - They Love Each Other
03 - My Brother Esau
04 - Big Railroad Blues >
05 - Beat It On Down The Line
06 - Tennessee Jed
07 - New Minglewood Blues >
08 - China Cat Sunflower >
09 - I Know You Rider

Set 2:
10 - Man Smart (Woman Smarter)
11 - Cumberland Blues
12 - Playing In The Band >
13 - China Doll >
14 - Drums >
15 - Space >
16 - The Other One >
17 - Goin' Down The Road Feeling Bad >
18 - One More Saturday Night

Encore:
19 - Cold Rain And Snow


SHNTOOL OUTPUT:
    length     expanded size    cdr  WAVE problems  fmt   ratio  filename
     9:34.073     110222104 B   cxx   --   ---xx   flac  0.6113  01 The Music Never Stopped.flac
     8:20.051      96009760 B   cxx   --   ---xx   flac  0.6051  02 They Love Each Other.flac
     5:44.357      66116516 B   cxx   --   ---xx   flac  0.6007  03 My Brother Esau.flac
     5:22.439      61908256 B   cxx   --   ---xx   flac  0.5971  04 Big Railroad Blues.flac
     4:04.064      46860340 B   cxx   --   ---xx   flac  0.5860  05 Beat It On Down The Line.flac
     8:16.652      95357320 B   cxx   --   ---xx   flac  0.5798  06 Tennessee Jed.flac
     7:01.056      80842736 B   cxx   --   ---xx   flac  0.5942  07 New Minglewood Blues.flac
     6:17.450      72470476 B   cxx   --   ---xx   flac  0.5867  08 China Cat Sunflower.flac
     5:08.720      59274376 B   cxx   --   ---xx   flac  0.5872  09 I Know You Rider.flac
     5:45.670      66368704 B   cxx   --   ---xx   flac  0.5875  10 Man Smart (Woman Smarter).flac
     7:03.363      81285740 B   cxx   --   ---xx   flac  0.5870  11 Cumberland Blues.flac
    12:13.652     140861276 B   cxx   --   ---xx   flac  0.5731  12 Playing In The Band.flac
     9:28.099     109074960 B   cxx   --   ---xx   flac  0.5542  13 China Doll.flac
     8:03.917      92912192 B   cxx   --   ---xx   flac  0.5181  14 Drums.flac
    10:54.707     125703800 B   cxx   --   ---xx   flac  0.4815  15 Space.flac
     9:34.241     110254296 B   cxx   --   ---xx   flac  0.5468  16 The Other One.flac
     6:38.777      76565168 B   cxx   --   ---xx   flac  0.6043  17 Goin' Down The Road Feeling Bad.flac
     4:34.240      52654032 B   cxx   --   ---xx   flac  0.5935  18 One More Saturday Night.flac
     5:47.838      66784984 B   cxx   --   ---xx   flac  0.5940  19 Cold Rain And Snow.flac
   139:53.366    1611527036 B                            0.5735  (19 files)


Show Checksums
ffp
01 The Music Never Stopped.flac:c75684132da3b70cf21ae8bcbd69cb26
02 They Love Each Other.flac:80639323fd6a38c16bd7ad0a2dd2c211
03 My Brother Esau.flac:882583e7cbff48ef7ec296a3a6c60634
04 Big Railroad Blues.flac:75ea7911357da8fdcc7af34d8454250a
05 Beat It On Down The Line.flac:e73aa25ae4d04f72495038e724caef4f
06 Tennessee Jed.flac:d7a625a2f423155effe12b729ac33557
07 New Minglewood Blues.flac:a7e57dd81b0cc8a900817a07eaee381b
08 China Cat Sunflower.flac:09c36ad6f01e2d430d133c0a977e5c0a
09 I Know You Rider.flac:943ce83c0366d68b7a6e913cb4266fe5
10 Man Smart (Woman Smarter).flac:ad9599c708045e49a079ff62e4e85c10
11 Cumberland Blues.flac:7440c76f9c6d3f1909e56d6611daf199
12 Playing In The Band.flac:4e3e0ffca993bf0bed712c9896fc70f8
13 China Doll.flac:e79a949db3c30c4146c7fb7106fe8cec
14 Drums.flac:dfe98dab78fa0be1d564120e113f46fd
15 Space.flac:c0b9fa545873c1f1bbb11409181cd3ad
16 The Other One.flac:c7f7c00a41ab319d3d2c043059934948
17 Goin' Down The Road Feeling Bad.flac:088e354070b7bcd37bd040f058aa44bc
18 One More Saturday Night.flac:a6d8d9038e753c0a7496c8ddbb4c7da1
19 Cold Rain And Snow.flac:d5818bfffee5b4ac8dbfa44cb705b55c
flac-md5
101ebaa2207971628bf029b96f4e28be *01 The Music Never Stopped.flac
9c9b62f5a49528802c6ad6b23cbf092f *02 They Love Each Other.flac
543d36acdcf6572144ecdc8469667663 *03 My Brother Esau.flac
b25a6c7fea3d6645790a443d7c1b6991 *04 Big Railroad Blues.flac
0145fbd5bdb499d1740445a776eb2531 *05 Beat It On Down The Line.flac
a8650e68ec886978240ed4a1f0e8ed6c *06 Tennessee Jed.flac
5ccb38f8b369af755bc53d9ca4ccf0fe *07 New Minglewood Blues.flac
86c89a155a3e9f98992c95d7d92642c9 *08 China Cat Sunflower.flac
1880aa6d840d6b1f359a2ec1d188d857 *09 I Know You Rider.flac
03b66bd8ba9213b46da3d2878be7ff43 *10 Man Smart (Woman Smarter).flac
60ac494c5345200dc3815960ce49f887 *11 Cumberland Blues.flac
a66b5bdd2b8489b18aefe5ea824fa60b *12 Playing In The Band.flac
2e1a2be50cd81220a46999f89c90be29 *13 China Doll.flac
7803d7d5b3ca637bb937c58fc0e470ef *14 Drums.flac
acc588a09d6537fc0f968a6e15e5ba20 *15 Space.flac
23a356f66eee7cd963161cb6ba13fc6a *16 The Other One.flac
6c20aaff6a05728a3d7019338ea09b94 *17 Goin' Down The Road Feeling Bad.flac
dfbc51abf2e293462ee21628d1d09570 *18 One More Saturday Night.flac
6e0db329ef86e0a207b03ec07aaec457 *19 Cold Rain And Snow.flac

Comments
Add Comment
Other Sources (comments)
Sources: Primary: Jeff... (0) flac16; Source:... (0) flac16; Recording... (0) flac16; Analog... (0) flac24; 2 x... (0) flac16; Lineage:... (0) flac16; source: 2... (0) flac24; billydee... (0) flac16; Matrix by... (0) flac16; billydee... (0) flac16/44.1 ... (0) flac24/48 Master:... (0)
Date User Comment