Browse Collections Artists Sources   Search Dates

Add Show    List Management    Help


Grateful Dead 11/29/80
Alligator Alley Gymnasium, U of Florida, Gainesville, FL
Comments Add Comment    Source Collectors    Add to Collection    Add to Want List    History
Source # 139321 Other Sources
Entered by Matt Vernon
Checksums ffp , flac-md5
Disc Counts 0 / 0
Media Size Compressed: 2.25 GB (2419792922 bytes)
Uncompressed: 3.31 GB (3555809316 bytes)
Date Circulated
Date Added
09/13/2017
09/13/2017
Source Summary flac24; Set 2 Recording Info: SBD > Multi-Gen Cassette (Maxell XLII 90); Transfer Info: Cassette (Nakamichi CR-7A) > Tascam DA-3000 (DSF 1-bit/5.8 MHz) > KORG AudioGate 4 > Adobe Audition CC 2015 > Samplitude Pro X3 Suite > FLAC/24; All Transfers and Mastering By Charlie Miller 
  Archive
Source Information - Download Text | Download Zip
Grateful Dead - November 29, 1980
Alligator Alley Gym - Gainesville, FL

Recording Info:
SBD > Multi-Gen Cassette (Maxell XLII 90)

Transfer Info:
Cassette (Nakamichi CR-7A) > Tascam DA-3000 (DSF 1-bit/5.8 MHz) >
KORG AudioGate 4 > Adobe Audition CC 2015 > Samplitude Pro X3 Suite > FLAC/24
(1 DVD FLAC)

All Transfers and Mastering By Charlie Miller
[email protected]
September 12, 2017

Patch Info:
(FOB) Beyer M160 > Cassette Master > FLAC (shnid=132457) supplies:
Truckin' (4:18 - 6:04) (8:10 - end of track)
Drums (0:00 - 0:02)
Good Lovin' (0:08 - end of track)
Encore Break (complete track)
U.S. Blues (complete track)

Notes:
-- Thanks to Sean Kutzko for the tape
-- This is all that is currently available from the soundboard
-- Thanks to Jim Wise for the patch source
-- Thanks to Joe B. Jones for his input on the pitch correction

Set 2:
01 - Shakedown Street >
02 - Franklin's Tower >
03 - Estimated Prophet >
04 - He's Gone >
05 - Truckin' >
06 - Drums >
07 - Space >
08 - The Other One >
09 - Stella Blue >
10 - Good Lovin'

Encore:
11 - Encore Break
12 - Casey Jones


SHNTOOL OUTPUT:
    length     expanded size    cdr  WAVE problems  fmt   ratio  filename
    10:31.146     363539996 B   cxx   --   ---xx   flac  0.6878  01 Shakedown Street.flac
     7:30.158     259290956 B   cxx   --   ---xx   flac  0.6877  02 Franklin's Tower.flac
    10:37.550     367229000 B   cxx   --   ---xx   flac  0.6883  03 Estimated Prophet.flac
    12:42.119     438980366 B   cxx   --   ---xx   flac  0.6824  04 He's Gone.flac
     9:08.147     315732776 B   cxx   --   ---xx   flac  0.6880  05 Truckin'.flac
    14:17.952     494180594 B   cxx   --   ---xx   flac  0.6758  06 Drums.flac
     6:15.429     216247256 B   cxx   --   ---xx   flac  0.6784  07 Space.flac
     6:01.591     208276406 B   cxx   --   ---xx   flac  0.6873  08 The Other One.flac
    10:49.192     373934540 B   cxx   --   ---xx   flac  0.6796  09 Stella Blue.flac
     8:08.897     281604434 B   cxx   --   ---xx   flac  0.6693  10 Good Lovin'.flac
     1:14.103      42683606 B   cxx   --   ---xx   flac  0.6432  11 Encore Break.flac
     5:36.995     194109386 B   cxx   --   ---xx   flac  0.6593  12 Casey Jones.flac
   102:53.279    3555809316 B                            0.6805  (12 files)


Show Checksums
ffp
01 Shakedown Street.flac:b5f4f12d8372b166b74f6b1cb1d42c66
02 Franklin's Tower.flac:ec68f6611d1d149fe79e6c13cf946622
03 Estimated Prophet.flac:7f69f90d572ffa5c88fcdccb2b096d11
04 He's Gone.flac:2b6b55b660e9b0269cbb0c22afcc609f
05 Truckin'.flac:faeaea68fa4174ea68feaea820d16591
06 Drums.flac:b08e03f43a64f01cc144fc499545031f
07 Space.flac:da17748c1cf2cba0ec76cf57fdcefeea
08 The Other One.flac:d67d0ae0d985af6ee15a38eca6e5fc74
09 Stella Blue.flac:123ab44a423bd69af0d3ab3fde02fd20
10 Good Lovin'.flac:67e1a46b41eea6bca53365ccc927b86e
11 Encore Break.flac:674808f146eb8d6c6e5158c57b031dd1
12 Casey Jones.flac:3e5afc969405911d09adadd18c5644ef
flac-md5
1f32bf0b239152e32fd6c0ce28e59572 *01 Shakedown Street.flac
1326afd0eed73a99f51fe7239ec045e2 *02 Franklin's Tower.flac
7a484a1760b232cc70006d490f4a9c44 *03 Estimated Prophet.flac
191b06ba82f555d28d0dbcc9acfdcda6 *04 He's Gone.flac
63dca40f5799c2ad87830cffdf671e08 *05 Truckin'.flac
4741b11b2eb3442f4b883011b66f46de *06 Drums.flac
89b1bbf838bd4c02967a826bcec18293 *07 Space.flac
677f50fbbc95314fb258fd76be674834 *08 The Other One.flac
b254a305693847ec1bb55ae0569d2817 *09 Stella Blue.flac
745090551cdb4cca39f0bf2faa866b9b *10 Good Lovin'.flac
95f5fc2d602406c7377e09819b701448 *11 Encore Break.flac
0dfad896aca8748957b7f114ff5a137c *12 Casey Jones.flac

Comments
Add Comment
Other Sources (comments)
no source info; via D. Barrick (2) Recording by Jim Wise: FOB... (3) flac16; Recording by... (1) flac16; Recording... (0) flac16; Recording... (0) flac24; Recorded... (0) flac16/48kHz;... (0) flac24; Cassette... (0) flac24; AUD: Unknown... (0) flac16; AUD: Unknown... (0) flac16; Set 2... (0)
Date User Comment