Browse Collections Artists Sources   Search Dates

Add Show    List Management    Help


Grateful Dead 11/29/80
Alligator Alley Gymnasium, U of Florida, Gainesville, FL
Comments Add Comment    Source Collectors    Add to Collection    Add to Want List    History
Source # 139322 Other Sources
Entered by Matt Vernon
Checksums ffp , flac-md5
Disc Counts 0 / 0
Media Size Compressed: 644.77 MB (676089856 bytes)
Uncompressed: 1.01 GB (1088967120 bytes)
Date Circulated
Date Added
09/13/2017
09/13/2017
Source Summary flac16; Set 2 Recording Info: SBD > Multi-Gen Cassette (Maxell XLII 90); Transfer Info: Cassette (Nakamichi CR-7A) > Tascam DA-3000 (DSF 1-bit/5.8 MHz) > KORG AudioGate 4 > Adobe Audition CC 2015 > Samplitude Pro X3 Suite > FLAC/24; All Transfers and Mastering By Charlie Miller. This is 139321 24 bit -> 16 bit 
  Archive
Source Information - Download Text | Download Zip
Grateful Dead - November 29, 1980
Alligator Alley Gym - Gainesville, FL

Recording Info:
SBD > Multi-Gen Cassette (Maxell XLII 90)

Transfer Info:
Cassette (Nakamichi CR-7A) > Tascam DA-3000 (DSF 1-bit/5.8 MHz) >
KORG AudioGate 4 > Adobe Audition CC 2015 > Samplitude Pro X3 Suite > FLAC/24
(1 DVD FLAC)

All Transfers and Mastering By Charlie Miller
[email protected]
September 12, 2017

Patch Info:
(FOB) Beyer M160 > Cassette Master > FLAC (shnid=132457) supplies:
Truckin' (4:18 - 6:04) (8:10 - end of track)
Drums (0:00 - 0:02)
Good Lovin' (0:08 - end of track)
Encore Break (complete track)
U.S. Blues (complete track)

Notes:
-- Thanks to Sean Kutzko for the tape
-- This is all that is currently available from the soundboard
-- Thanks to Jim Wise for the patch source
-- Thanks to Joe B. Jones for his input on the pitch correction
-- This is 139321 24 bit -> 16 bit

Set 2:
01 - Shakedown Street >
02 - Franklin's Tower >
03 - Estimated Prophet >
04 - He's Gone >
05 - Truckin' >
06 - Drums >
07 - Space >
08 - The Other One >
09 - Stella Blue >
10 - Good Lovin'

Encore:
11 - Encore Break
12 - Casey Jones


SHNTOOL OUTPUT:
    length     expanded size    cdr  WAVE problems  fmt   ratio  filename
    10:31.10      111331964 B   ---   --   ---xx   flac  0.6408  01 Shakedown Street.flac
     7:30.12       79408268 B   ---   --   ---xx   flac  0.6416  02 Franklin's Tower.flac
    10:37.42      112465628 B   ---   --   ---xx   flac  0.6335  03 Estimated Prophet.flac
    12:42.08      134435660 B   ---   --   ---xx   flac  0.6142  04 He's Gone.flac
     9:08.11       96693116 B   ---   --   ---xx   flac  0.6358  05 Truckin'.flac
    14:17.72      151344188 B   ---   --   ---xx   flac  0.6081  06 Drums.flac
     6:15.32       66225308 B   ---   --   ---xx   flac  0.6168  07 Space.flac
     6:01.44       63783932 B   ---   --   ---xx   flac  0.6413  08 The Other One.flac
    10:49.15      114518924 B   ---   --   ---xx   flac  0.6160  09 Stella Blue.flac
     8:08.67       86240828 B   ---   --   ---xx   flac  0.6099  10 Good Lovin'.flac
     1:14.08       13072460 B   ---   --   ---xx   flac  0.5304  11 Encore Break.flac
     5:37.00       59446844 B   ---   --   ---xx   flac  0.5826  12 Casey Jones.flac
   102:53.21     1088967120 B                            0.6208  (12 files)




Show Checksums
ffp
01 Shakedown Street.flac:cb743690edea62fcb4a5c48ee462b37f
02 Franklin's Tower.flac:83e1042efb02f11af0f9255221c90ba2
03 Estimated Prophet.flac:8a674caf22195b6834a86d62925f2d3d
04 He's Gone.flac:84115f8737a3c8881c488d8f3ce6446e
05 Truckin'.flac:cdcb408698a3d8cfa8052bd24572fa7e
06 Drums.flac:062fdaa7eb15a2fd769fb88ee28ef396
07 Space.flac:ae6586f300f7243a378bb66ab2791637
08 The Other One.flac:f59189a3dcaa06a3e110b26f547a5c3e
09 Stella Blue.flac:b546e42b93e7971304ffdcbf2e160b1b
10 Good Lovin'.flac:53a8cbe5418f516b8eae2d576a8ebb50
11 Encore Break.flac:968c90a3d2f78ab3041e905fac1a606b
12 Casey Jones.flac:acf9ad4a0710f0cd514103e6038daf1b
flac-md5
21f1e222b5e1345ff83534d64edf81af *01 Shakedown Street.flac
431722125dad715957b74630b9e53143 *02 Franklin's Tower.flac
4c12fe4d28826b7e4f978b7f6744110e *03 Estimated Prophet.flac
59d6ee7d0b2337bf7f748b94a03af828 *04 He's Gone.flac
748a6f6f4b2f07b7826eb5526b7bfe12 *05 Truckin'.flac
04371aa106ca7ddccf36a17c96b7a3d3 *06 Drums.flac
c0aeac039d9857c556d36dc1fbed3d5a *07 Space.flac
72b8f5c1a0fe68bb811a9723dff6ff7b *08 The Other One.flac
e3b71ca9bb8907718e99bfce09c69bd4 *09 Stella Blue.flac
bdb2c3481cd68186b0420829c648d929 *10 Good Lovin'.flac
d0dc2ac2428813b21452498349062788 *11 Encore Break.flac
9a9d9500403b3741cafe7e5b550f0845 *12 Casey Jones.flac

Comments
Add Comment
Other Sources (comments)
no source info; via D. Barrick (2) Recording by Jim Wise: FOB... (3) flac16; Recording by... (1) flac16; Recording... (0) flac16; Recording... (0) flac24; Recorded... (0) flac16/48kHz;... (0) flac24; Cassette... (0) flac24; AUD: Unknown... (0) flac16; AUD: Unknown... (0) flac24; Set 2... (0)
Date User Comment