Browse Collections Artists Sources   Search Dates

Add Show    List Management    Help


Grateful Dead 03/17/94
Rosemont Horizon, Rosemont, IL
Comments Add Comment    Source Collectors    Add to Collection    Add to Want List    History
Source # 139336 Other Sources
Entered by Matt Vernon
Checksums ffp , flac-md5
Disc Counts 0 / 0
Media Size
Date Circulated
Date Added

09/15/2017
Source Summary flac16 44.1khz Source: AKG C391 ORTF in first row OTS 8 foot stand > Teac DAP20 @ 16/48. Transfer: DAT Master>Lynx Studio 1>Wavelab 3.0. Weiss Saracon SRC (all sample rate conversions). FLAC'd using Audiofile Engineering Sample Manager. Recorded by Dave Cohen and Justin Lee. Transfer by Dave Cohen 2010. 
  Archive
Source Information - Download Text | Download Zip
The Grateful Dead
Rosemont Horizon
Rosemont, IL.
Date 3/17/94

Source: AKG C391 ORTF in first row OTS 8 foot stand > Teac DAP20 @ 16/48
Transfer: DAT Master>Lynx Studio 1>Wavelab 3.0. Weiss Saracon SRC (all sample rate conversions). FLAC'd using Audiofile Engineering Sample Manager.
Recorded by Dave Cohen and Justin Lee
Transfer by Dave Cohen 2010

01. Touch of Grey
02. Wang Dang Doodle
03. Althea
04. Me&My Uncle
05. Mexicali Blues
06. Lazy River Road
07. Eternity
08. Tuning
09. Box of Rain
10. Aiko Aiko
11. Tuning
12. Playin in the Band
13. Uncle John’s Band
14. Drums
15. Space
16. The Wheel
17. All Along the Watchtower
18. Morning Dew
19. Rain

- - - - - -
    length     expanded size    cdr  WAVE problems  fmt   ratio  filename
     6:57.65       73711724 B   ---   --   ---xx   flac  0.5852  d1t01.flac
     6:51.18       72542780 B   ---   --   ---xx   flac  0.5607  d1t02.flac
     8:56.65       94703324 B   ---   --   ---xx   flac  0.5569  d1t03.flac
     2:48.54       29762252 B   ---   --   ---xx   flac  0.5761  d1t04.flac
     5:20.09       56469212 B   ---   --   ---xx   flac  0.5757  d1t05.flac
     7:08.37       75586268 B   ---   --   ---xx   flac  0.5544  d1t06.flac
     9:43.54      102968252 B   ---   --   ---xx   flac  0.5698  d1t07.flac
     0:13.36        2377916 B   ---   --   ---xx   flac  0.4776  d1t08.flac
     5:09.29       54575852 B   ---   --   ---xx   flac  0.5952  d1t09.flac
     8:30.64       90114572 B   ---   --   ---xx   flac  0.6218  d1t10.flac
     1:06.21       11691836 B   ---   --   ---xx   flac  0.5362  d2t01.flac
     8:50.32       93567308 B   ---   --   ---xx   flac  0.5958  d2t02.flac
    12:24.56      131373356 B   ---   --   ---xx   flac  0.5798  d2t03.flac
    11:28.50      121480844 B   ---   --   ---xx   flac  0.5292  d2t04.flac
    11:47.17      124754828 B   ---   --   ---xx   flac  0.4827  d2t05.flac
     4:42.08       49763660 B   ---   --   ---xx   flac  0.5821  d2t06.flac
     7:07.50       75440444 B   ---   --   ---xx   flac  0.5922  d2t07.flac
    15:31.09      164249612 B   ---   --   ---xx   flac  0.5606  d2t08.flac
     5:20.60       56589164 B   ---   --   ---xx   flac  0.5991  d2t09.flac
   139:59.59     1481723204 B                            0.5661  (19 files)





Show Checksums
ffp
d1t01.flac:6865453a5dbeff8fad92900c2b25f866
d1t02.flac:d7842be66bb4604f9519140c98626f01
d1t03.flac:072e6795a23511fd8c91ee047b9abe95
d1t04.flac:7a71a33a81ab794edb386edee5ce77d7
d1t05.flac:5eaf8dcbf1c5100af76d8384b889ea42
d1t06.flac:59c567b0acf5640f9d70a866e5ed5e54
d1t07.flac:c1ee5eebb57c58ad635315b2e54d2bf6
d1t08.flac:4a0e0cb8f131a011471e4f2df0c05086
d1t09.flac:48f04874b8cbf271d6d845b615a3ff5d
d1t10.flac:2b0315fe213e4b0c81db1dd2a166faab
d2t01.flac:b6d21c13a997ce2397617e8f08a7e819
d2t02.flac:36c7cadc549333c42c6715a3789327bb
d2t03.flac:0aeb4e8ad5cef02fd3060243095b57a9
d2t04.flac:a4244b3774b843f469846660722b77cc
d2t05.flac:5b31d4b292660b0f8438c3d046bb7947
d2t06.flac:c397ac3cad49bcffac71e5b5f214f8b3
d2t07.flac:4bb87dba43f43f9c9f75a2d5db00eafd
d2t08.flac:02d7278f0ecc4016e91cebd66fa07502
d2t09.flac:9cc1a0cee38380407fd3d2df8126b5e3
flac-md5
85a7ff40ccbc321d7440946c35dde790 *d1t01.flac
5fc078ca70539ef681f754137e29a757 *d1t02.flac
5bdaff246574d2af1539e1dd69a7ec28 *d1t03.flac
7e8ecd554b29378cac2bf8377931cdd3 *d1t04.flac
5582204b2e356d53a2c3714b97f551db *d1t05.flac
5c800b78b319ff3854f618af89ec1016 *d1t06.flac
69c976e6b839b5d90b4abd67e4fdc48a *d1t07.flac
2b6aede70c2478859502e8dc09dc8748 *d1t08.flac
73ca3064ea400b6838cc7277315ca2a9 *d1t09.flac
beae09e217214af81a2836ffa6a83b73 *d1t10.flac
5c412488e9aebbc419735483cd9cb7a0 *d2t01.flac
512c952342d7742cc02cc7d2fb10742f *d2t02.flac
180df5a13a0e07190eada09d57dea0dd *d2t03.flac
124637ad8f1632250c02e4eaeba42ae1 *d2t04.flac
9dec9eefa015ced62e4209ea0f5281f7 *d2t05.flac
ad70ded4a176760b16c529a35047c353 *d2t06.flac
218e9ccca436389bc88cd487e379b0f2 *d2t07.flac
d198e7c32fb08d1b01e3f664c32bdfd6 *d2t08.flac
7ad093580ce31d5b7807cfe95ba1eced *d2t09.flac

Comments
Add Comment
Other Sources (comments)
SBD > DAT > CDR > EAC >... (0) flac16/44 Source... (0)
Date User Comment