Browse Collections Artists Sources   Search Dates

Add Show    List Management    Help


Grateful Dead 12/06/81
Rosemont Horizon, Rosemont, IL
Comments Add Comment    Source Collectors    Add to Collection    Add to Want List    History
Source # 139344 Other Sources
Entered by Matt Vernon
Checksums flac-md5 , ffp
Disc Counts 0 / 0
Media Size Compressed: 1.88 GB (2023931904 bytes)
Uncompressed: 2.58 GB (2766005768 bytes)
Date Circulated
Date Added
09/16/2017
09/16/2017
Source Summary flac24; AUD: First Set; Richie Stankiewicz's Beyer M160's FOB. Second Set; Nakamichi CM300's w/CP4 shotguns from the floor area. Both Sets; Lead decks(s) > Sony TC-D5 > Hitachi UD-90's. Recording by Craig L. Transfer: MAC > Nakamichi CR-5A > Edirol FA-66 > Wavelab 2448 > CD-Wave (24bit output) > TLH > FLAC 2448 tagged. Transfer by Andrew F. 09/2017 
  Archive
Source Information - Download Text | Download Zip
GRATEFUL DEAD
Rosemont Horizon
Rosemont IL
12-06-1981

24bit/48kHz file-set

s1t01 Minglewood Blues
s1t02 Sugaree
s1t03 Mama Tried >
s1t04 Mexicali Blues
s1t05 Candyman >
s1t06 Little Red Rooster
s1t07 Tennessee Jed >
s1t08 Looks Like Rain
s1t09 Jackaroe
s1t10 Beat it on Down the Line
s1t11 China Cat Sunflower >
s1t12 I Know You Rider

s2t01 Samson & Delilah
s2t02 To Lay Me Down
s2t03 Estimated Prophet >
s2t04 Eyes of the World >
s2t05 Drums >
s2t06 Space (Pearl Harbor attack) >
s2t07 Not Fade Away >
s2t08 Wharf Rat >
s2t09 Good Lovin'
s2t10 Encore: Brokedown Palace

AUD: First Set; Richie Stankiewicz's Beyer M160's FOB. Second
Set; Nakamichi CM300's w/CP4 shotguns from the floor area. Both
Sets; Lead decks(s) > Sony TC-D5 > Hitachi UD-90's. Recording
by Craig L.

Transfer: MAC > Nakamichi CR-5A > Edirol FA-66 > Wavelab 2448 >
CD-Wave (24bit output) > TLH > FLAC 2448 tagged. Transfer by
Andrew F. 09/2017

Note: P.A. static in Candyman. Some mic-bumps in the 2nd Set.
ID-119584 patches; Tenn Jed 7:07 > 7:52, and Drums 6:49 > 7:32.

    length     expanded size    cdr  WAVE problems  fmt   ratio  filename
     7:04.320     122204204 B   cxx   --   ---xx   flac  0.7311  gd1981-12-06s1t01.flac
    10:57.093     189242924 B   cxx   --   ---xx   flac  0.7330  gd1981-12-06s1t02.flac
     2:40.427      46202924 B   cxx   --   ---xx   flac  0.7366  gd1981-12-06s1t03.flac
     4:44.413      81911084 B   cxx   --   ---xx   flac  0.7364  gd1981-12-06s1t04.flac
     6:33.387     113295404 B   cxx   --   ---xx   flac  0.7255  gd1981-12-06s1t05.flac
     7:42.333     133152044 B   cxx   --   ---xx   flac  0.7312  gd1981-12-06s1t06.flac
     8:30.280     146960684 B   cxx   --   ---xx   flac  0.7303  gd1981-12-06s1t07.flac
     8:11.080     141431084 B   cxx   --   ---xx   flac  0.7216  gd1981-12-06s1t08.flac
     4:22.573      75621164 B   cxx   --   ---xx   flac  0.7395  gd1981-12-06s1t09.flac
     3:06.520      53717804 B   cxx   --   ---xx   flac  0.7407  gd1981-12-06s1t10.flac
     5:54.867     102201644 B   cxx   --   ---xx   flac  0.7453  gd1981-12-06s1t11.flac
     7:47.211     134556824 B   cxx   --   ---xx   flac  0.7427  gd1981-12-06s1t12.flac
     7:28.373     129131564 B   cxx   --   ---xx   flac  0.7377  gd1981-12-06s2t01.flac
     9:07.227     157601324 B   cxx   --   ---xx   flac  0.7146  gd1981-12-06s2t02.flac
    10:14.160     176878124 B   cxx   --   ---xx   flac  0.7375  gd1981-12-06s2t03.flac
     9:08.707     158027564 B   cxx   --   ---xx   flac  0.7448  gd1981-12-06s2t04.flac
     7:32.173     130225964 B   cxx   --   ---xx   flac  0.7203  gd1981-12-06s2t05.flac
     5:45.253      99433004 B   cxx   --   ---xx   flac  0.7021  gd1981-12-06s2t06.flac
     9:29.707     164075564 B   cxx   --   ---xx   flac  0.7351  gd1981-12-06s2t07.flac
     9:13.973     159544364 B   cxx   --   ---xx   flac  0.7258  gd1981-12-06s2t08.flac
     8:15.653     142748204 B   cxx   --   ---xx   flac  0.7454  gd1981-12-06s2t09.flac
     6:14.452     107842304 B   cxx   --   ---xx   flac  0.7238  gd1981-12-06s2t10.flac
   160:04.183    2766005768 B                            0.7316  (22 files)

No errors occured.



Show Checksums
flac-md5
538be35904fb7968814ee03e8a3d1216 *gd1981-12-06s1t01.flac
46965a3426fdf3d03848eaf7502e61b1 *gd1981-12-06s1t02.flac
b90b37df7f22f2da2ef5090e07bc8fbd *gd1981-12-06s1t03.flac
a1b78e4256f34261a92df45f1298447c *gd1981-12-06s1t04.flac
d1c0b6625326d3088c1d499b31b2486d *gd1981-12-06s1t05.flac
9b62a9b210d0356004a57ec7c659f17c *gd1981-12-06s1t06.flac
7d2742b58ffa4a7cf1340740222346bf *gd1981-12-06s1t07.flac
aa6681915f0baf49402d15bae271f309 *gd1981-12-06s1t08.flac
4690e31067dbc80e3a242a728f0cd6ae *gd1981-12-06s1t09.flac
b669eb826da1883e29eb710152b27f8b *gd1981-12-06s1t10.flac
1ddb2648994e0948a8de450def03a244 *gd1981-12-06s1t11.flac
f84b7e3a6dd383658b8b51a65f251783 *gd1981-12-06s1t12.flac
3ced041fb9b1d98726f0cc491c685603 *gd1981-12-06s2t01.flac
f5c41d75a092906a5f174e7d72fd7217 *gd1981-12-06s2t02.flac
d09a4e287b4048cfee39383349c0c4ed *gd1981-12-06s2t03.flac
3105a8cc2d5104f4660595207c7d4cc8 *gd1981-12-06s2t04.flac
e5bcc1f93de1765bdc750525e0f8c83f *gd1981-12-06s2t05.flac
df80b90a78d28703e4ce32201ab3c1b1 *gd1981-12-06s2t06.flac
0689acc7a63eab391d998831747dc4f9 *gd1981-12-06s2t07.flac
4b88f8fa0ecd8256960eb6ec062508de *gd1981-12-06s2t08.flac
8044a000f8e267990ab131058a8c873f *gd1981-12-06s2t09.flac
f8a1d80701c3c66fa9122bc2a64de4dd *gd1981-12-06s2t10.flac
ffp
gd1981-12-06s1t01.flac:93e5837e474890bd6653aff3d0d991bf
gd1981-12-06s1t02.flac:7a23304a83e719629f4a223c8fe17fe2
gd1981-12-06s1t03.flac:fa826125c72a4ecb3386760f5956b023
gd1981-12-06s1t04.flac:cb281837257c8472323084a8c24fb750
gd1981-12-06s1t05.flac:81b58968740498ff7bbade28508830f0
gd1981-12-06s1t06.flac:db24ed038aeec159ad47aac0d5a4c78c
gd1981-12-06s1t07.flac:228227ae87607c2982551f1366562c5b
gd1981-12-06s1t08.flac:81f62b9da506ab52433e4acf8a5c5c0f
gd1981-12-06s1t09.flac:26ab39c03324b8f1c4c61a8508b545b0
gd1981-12-06s1t10.flac:cf8ff5d5965809ba7a4ff769fd746adc
gd1981-12-06s1t11.flac:b463324c395c73d98a332b169f38eda2
gd1981-12-06s1t12.flac:85dd5bc04d868ec4f551374bec28fc20
gd1981-12-06s2t01.flac:1a7022494b0bef064a7b2fac5cb0c92e
gd1981-12-06s2t02.flac:23c3ffd4f3c8191fa53e1de4bf3b8e24
gd1981-12-06s2t03.flac:891862bfe0d9ff19763364c966c67e1e
gd1981-12-06s2t04.flac:9634e2651cc6d6cc715ceb49d31a2cb4
gd1981-12-06s2t05.flac:5e95fdb2a52a0576482ee23cbe9062f9
gd1981-12-06s2t06.flac:362b61ce6a84c584209d0dec1d351fe3
gd1981-12-06s2t07.flac:bbf7fc4109cb05e0ded2f4ee6f9a659f
gd1981-12-06s2t08.flac:2cf0bc52b526feb1befd84d1bd7989ad
gd1981-12-06s2t09.flac:af83ff062ea40ec7fc3f2879f80a4b8d
gd1981-12-06s2t10.flac:8a1d86bca596592a061da04f4594c719

Comments
Add Comment
Other Sources (comments)
Unknown Aud>DAT>CDR; via... (0) flac16;Recording by... (2) flac16; AUD Master... (0) flac16; Recording... (0) flac16; Recorded by... (0) flac16; Recording... (1) flac16; AUD: First... (0)
Date User Comment