Browse Collections Artists Sources   Search Dates

Add Show    List Management    Help


Grateful Dead 12/06/81
Rosemont Horizon, Rosemont, IL
Comments Add Comment    Source Collectors    Add to Collection    Add to Want List    History
Source # 139345 Other Sources
Entered by Matt Vernon
Checksums flac-md5 , ffp
Disc Counts 0 / 0
Media Size Compressed: 982.79 MB (1030529024 bytes)
Uncompressed: 1.58 GB (1694179496 bytes)
Date Circulated
Date Added
09/16/2017
09/16/2017
Source Summary flac16; AUD: First Set; Richie Stankiewicz's Beyer M160's FOB. Second Set; Nakamichi CM300's w/CP4 shotguns from the floor area. Both Sets; Lead decks(s) > Sony TC-D5 > Hitachi UD-90's. Recording by Craig L. Transfer: MAC > Nakamichi CR-5A > Edirol FA-66 > Wavelab 2448 > CD-Wave (24bit output) > R8Brain > TLH > FLAC 1644 tagged. Transfer by Andrew F. 09/2017 
  Archive
Source Information - Download Text | Download Zip
GRATEFUL DEAD
Rosemont Horizon
Rosemont IL
12-06-1981

16bit/44.1kHz file-set

s1t01 Minglewood Blues
s1t02 Sugaree
s1t03 Mama Tried >
s1t04 Mexicali Blues
s1t05 Candyman >
s1t06 Little Red Rooster
s1t07 Tennessee Jed >
s1t08 Looks Like Rain
s1t09 Jackaroe
s1t10 Beat it on Down the Line
s1t11 China Cat Sunflower >
s1t12 I Know You Rider

s2t01 Samson & Delilah
s2t02 To Lay Me Down
s2t03 Estimated Prophet >
s2t04 Eyes of the World >
s2t05 Drums >
s2t06 Space (Pearl Harbor attack) >
s2t07 Not Fade Away >
s2t08 Wharf Rat >
s2t09 Good Lovin'
s2t10 Encore: Brokedown Palace

AUD: First Set; Richie Stankiewicz's Beyer M160's FOB. Second
Set; Nakamichi CM300's w/CP4 shotguns from the floor area. Both
Sets; Lead decks(s) > Sony TC-D5 > Hitachi UD-90's. Recording
by Craig L.

Transfer: MAC > Nakamichi CR-5A > Edirol FA-66 > Wavelab 2448 >
CD-Wave (24bit output) > R8Brain > TLH > FLAC 1644 tagged.
Transfer by Andrew F. 09/2017

Note: P.A. static in Candyman. Some mic-bumps in the 2nd Set.
ID-119584 patches; Tenn Jed 7:07 > 7:52, and Drums 6:49 > 7:32.

    length     expanded size    cdr  WAVE problems  fmt   ratio  filename
     7:04.24       74850092 B   ---   --   ---xx   flac  0.6091  gd1981-12-06s1t01.flac
    10:57.07      115911308 B   ---   --   ---xx   flac  0.6108  gd1981-12-06s1t02.flac
     2:40.32       28299308 B   ---   --   ---xx   flac  0.6168  gd1981-12-06s1t03.flac
     4:44.31       50170556 B   ---   --   ---xx   flac  0.6163  gd1981-12-06s1t04.flac
     6:33.29       69393452 B   ---   --   ---xx   flac  0.5988  gd1981-12-06s1t05.flac
     7:42.25       81555644 B   ---   --   ---xx   flac  0.6079  gd1981-12-06s1t06.flac
     8:30.21       90013436 B   ---   --   ---xx   flac  0.6065  gd1981-12-06s1t07.flac
     8:11.06       86626556 B   ---   --   ---xx   flac  0.5925  gd1981-12-06s1t08.flac
     4:22.43       46317980 B   ---   --   ---xx   flac  0.6211  gd1981-12-06s1t09.flac
     3:06.39       32902172 B   ---   --   ---xx   flac  0.6231  gd1981-12-06s1t10.flac
     5:54.65       62598524 B   ---   --   ---xx   flac  0.6306  gd1981-12-06s1t11.flac
     7:47.16       82416476 B   ---   --   ---xx   flac  0.6267  gd1981-12-06s1t12.flac
     7:28.28       79093100 B   ---   --   ---xx   flac  0.6179  gd1981-12-06s2t01.flac
     9:07.17       96530828 B   ---   --   ---xx   flac  0.5794  gd1981-12-06s2t02.flac
    10:14.12      108337868 B   ---   --   ---xx   flac  0.6167  gd1981-12-06s2t03.flac
     9:08.53       96791900 B   ---   --   ---xx   flac  0.6287  gd1981-12-06s2t04.flac
     7:32.13       79763420 B   ---   --   ---xx   flac  0.5901  gd1981-12-06s2t05.flac
     5:45.19       60902732 B   ---   --   ---xx   flac  0.5594  gd1981-12-06s2t06.flac
     9:29.53      100496300 B   ---   --   ---xx   flac  0.6130  gd1981-12-06s2t07.flac
     9:13.73       97720940 B   ---   --   ---xx   flac  0.5979  gd1981-12-06s2t08.flac
     8:15.49       87433292 B   ---   --   ---xx   flac  0.6302  gd1981-12-06s2t09.flac
     6:14.34       66053612 B   ---   --   ---xx   flac  0.5951  gd1981-12-06s2t10.flac
   160:04.14     1694179496 B                            0.6081  (22 files)

No errors occured.



Show Checksums
flac-md5
5a14b6715955ea9b9d7ae0ee1463a5c6 *gd1981-12-06s1t01.flac
1cec5d1c35d07c4051af755ec6a31c47 *gd1981-12-06s1t02.flac
f1a41cd89c9afa666bde84123e651add *gd1981-12-06s1t03.flac
473f79c8f40944913ca492c57e0062fd *gd1981-12-06s1t04.flac
903c51b74d79f72a8c486800c8897329 *gd1981-12-06s1t05.flac
2ac7c8a1e75f2c8ee3736dd3ac23a05e *gd1981-12-06s1t06.flac
98a688b225d103f74e0a0b837038255f *gd1981-12-06s1t07.flac
1745b4e0d2ee2d87b77af8da79583268 *gd1981-12-06s1t08.flac
8ac0e04f5eea1f87961618de570f90f9 *gd1981-12-06s1t09.flac
5910942b3743426ec021363a66466f9b *gd1981-12-06s1t10.flac
1152f1fe3b3bbdba6d8e7d83603ef63c *gd1981-12-06s1t11.flac
3b299ff48036725581053856ec31b666 *gd1981-12-06s1t12.flac
b215e307a493e83d4f4a124bf70bbece *gd1981-12-06s2t01.flac
63260e7a993db6e0e1a2005c1d56b011 *gd1981-12-06s2t02.flac
81f98028a17acfbdb26c2aba1ed71b45 *gd1981-12-06s2t03.flac
035a7e95a26b69365cf9bee7e63e0bda *gd1981-12-06s2t04.flac
390082e8d9ec6182b8c7865ea541aef2 *gd1981-12-06s2t05.flac
bc0d12d82dd71d78cf3a0ebb951c9507 *gd1981-12-06s2t06.flac
eee8ba33fea2c07c2c943d5499c27394 *gd1981-12-06s2t07.flac
6b8a3eb0b7ddc305cb08ecff02a43614 *gd1981-12-06s2t08.flac
6be52f2785dbec3274305831aabc81c4 *gd1981-12-06s2t09.flac
cca37d3e7600fc4bcdf260c7f12ef709 *gd1981-12-06s2t10.flac
ffp
gd1981-12-06s1t01.flac:ac85d6d576a63c8ef6f17561e0c9f922
gd1981-12-06s1t02.flac:a5abf7f9df3867d4f72b81f5da1f587d
gd1981-12-06s1t03.flac:e6d07438bc59ac2af8bb7a0150f93a98
gd1981-12-06s1t04.flac:4dc41ec4c22415ae3e26850af71e14f3
gd1981-12-06s1t05.flac:03e5a1af70d0d7e21c154e4f31207d70
gd1981-12-06s1t06.flac:3e8b21efebe91407b5515077942550e5
gd1981-12-06s1t07.flac:47346c0442cbe7360c64a246099f366f
gd1981-12-06s1t08.flac:9405ca005cc49a9f143244722c33d7a8
gd1981-12-06s1t09.flac:76f941e27404df45aff2712355efaa85
gd1981-12-06s1t10.flac:160cc444b0bce0172278f69626d84267
gd1981-12-06s1t11.flac:3cdb8216d89384282031f6e77de88cd7
gd1981-12-06s1t12.flac:84308352ea894d21a36d149285c4fed2
gd1981-12-06s2t01.flac:22c5159b5bbfd784710db60d59ebf3b0
gd1981-12-06s2t02.flac:0676d9c3b5c18307f7ccb92df0dc7707
gd1981-12-06s2t03.flac:fb71242e568581e5ab595eb09e793f4c
gd1981-12-06s2t04.flac:80fb503795975cba8f8840b224241e47
gd1981-12-06s2t05.flac:191c952b4491e356467fe1a9c797de78
gd1981-12-06s2t06.flac:1468af8d98a67f762e6d9f227f1f1310
gd1981-12-06s2t07.flac:a66457d8a4a903f56da719cad3582183
gd1981-12-06s2t08.flac:6e7ac706f5830e24ebc0d4c4f0a6efeb
gd1981-12-06s2t09.flac:561286a94625418180acea8374a6341e
gd1981-12-06s2t10.flac:70c881050ddec42c28ab5617251576bf

Comments
Add Comment
Other Sources (comments)
Unknown Aud>DAT>CDR; via... (0) flac16;Recording by... (2) flac16; AUD Master... (0) flac16; Recording... (0) flac16; Recorded by... (0) flac16; Recording... (1) flac24; AUD: First... (0)
Date User Comment