Browse Collections Artists Sources   Search Dates

Add Show    List Management    Help


Grateful Dead 04/08/94
Miami Arena, Miami, FL
Comments Add Comment    Source Collectors    Add to Collection    Add to Want List    History
Source # 139358 Other Sources
Entered by Matt Vernon
Checksums ffp , flac-md5
Disc Counts 0 / 0
Media Size
Date Circulated
Date Added

09/18/2017
Source Summary flac16 44.1khz Set 2 Only. Source: Soundboard->Cassette->DAT Transfer: Cassette transfered to DAT in the mid 90's... DAT-> Marantz CDR 615 (late 90's)-> extract wav -> Flaced with Traders little helper Level 8->Tagged. (16/44.1). Transfers by Pete Ebel 
  Archive
Source Information - Download Text | Download Zip
Grateful Dead
Miami Arena
Miami, FL
Date: 04-08-1994


Source: Soundboard->Cassette->DAT
Transfer: Cassette transfered to DAT in the mid 90's...
DAT-> Marantz CDR 615 (late 90's)-> extract wav -> Flaced with Traders little helper Level 8->Tagged. (16/44.1)

The encore was cut (I Fought The Law) so Audience FOB Schoeps CMC 521->DAT was used.


Transfers by Pete Ebel


Set 2 Only:
01. Scarlet Begonias
02. Fire On The Mountain
03. Saint Of Circumstance
04. Lazy River Road
05. Corrina
06. Drumz
07. Space
08. I Need A Miracle
09. The Days Between
10. Around & Around

Encore:
11. I Fought The Law

- - - - -

    length     expanded size    cdr  WAVE problems  fmt   ratio  filename
     8:44.58       92570060 B   ---   --   ---xx   flac  0.5253  01 Scarlet Begonias.flac
    18:04.23      191271740 B   ---   --   ---xx   flac  0.5026  02 Fire On The Mountain.flac
     7:16.53       77035100 B   ---   --   ---xx   flac  0.5080  03 Saint Of Circumstance.flac
     7:08.48       75612140 B   ---   --   ---xx   flac  0.4670  04 Lazy River Road.flac
    13:32.55      143366204 B   ---   --   ---xx   flac  0.5660  05 Corrina.flac
    15:34.32      164832908 B   ---   --   ---xx   flac  0.5043  06 Drumz.flac
     6:57.17       73598828 B   ---   --   ---xx   flac  0.4012  07 Space.flac
     4:18.22       45562988 B   ---   --   ---xx   flac  0.5675  08 I Need A Miracle.flac
    13:41.61      144967916 B   ---   --   ---xx   flac  0.4890  09 The Days Between.flac
     6:39.36       70468316 B   ---   --   ---xx   flac  0.5305  10 Around & Around.flac
     3:18.55       35056604 B   ---   --   ---xx   flac  0.5691  11 I Fought The Law.flac
   105:17.10     1114342804 B                            0.5089  (11 files)





Show Checksums
ffp
01 Scarlet Begonias.flac:fdd8c9e1845c2ef68bf4867fe81c9ed1
02 Fire On The Mountain.flac:4de406d721f2b9357120b8b55ab7cef4
03 Saint Of Circumstance.flac:7c3ebd3ff3c1d12e9c8369406c869b6e
04 Lazy River Road.flac:1b71ab97223b6d21063d2f61d662c3d9
05 Corrina.flac:1f8989617831e5cf4496e30b4e7271c1
06 Drumz.flac:07961495dc92f5901a595be0d40264d0
07 Space.flac:418647598308ec98c09bc8c3417d933e
08 I Need A Miracle.flac:bfa5b6afb8a2f112892d9b840b78bd0e
09 The Days Between.flac:bc9a6ffbcd42161be421086c9fa2ad52
10 Around & Around.flac:a6b2372ec385e65abbfd555b7ec28adf
11 I Fought The Law.flac:bcfadbbc24c46c90cfaa4433a5b804b3
flac-md5
841b4c35ffee2eb2c6f1f12513ddc99c *01 Scarlet Begonias.flac
1105328b429f59c129081d8b33496a28 *02 Fire On The Mountain.flac
4c06ac0ac430db2d6b4cbb46c82a856b *03 Saint Of Circumstance.flac
3843dfe0429f37036fd13a20ecd05fb8 *04 Lazy River Road.flac
29ef570ff8cf455a014b2f2dfd585cf5 *05 Corrina.flac
ae0998dad73a897073b33089e750d6e4 *06 Drumz.flac
c0bf153c1599888bc5c2f1d886b44efe *07 Space.flac
a6b7c0ea829475dcc712df204130643c *08 I Need A Miracle.flac
e4c99f68376a18ca032ff29d5bef8566 *09 The Days Between.flac
0856f7bf701ec371e6832886d31d2ebf *10 Around & Around.flac
8c33129183eba1d503df2b457ec946fc *11 I Fought The Law.flac

Comments
Add Comment
Other Sources (comments)
AUD(Schoeps... (0)
Date User Comment