Browse Collections Artists Sources   Search Dates

Add Show    List Management    Help


Grateful Dead 03/23/94
Nassau Coliseum, Uniondale, NY
Comments Add Comment    Source Collectors    Add to Collection    Add to Want List    History
Source # 139365 Other Sources
Entered by Matt Vernon
Checksums ffp , flac-md5
Disc Counts 0 / 0
Media Size
Date Circulated
Date Added

09/19/2017
Source Summary flac16 44.1khz Source Info: Soundboard-> DAT. Transfer Info: Dat (Panasonic SV-3700) -> Marantz CDR-615 -> CD (Late 90's). Extract Wav-> Flac Level 8-> Tagged (16/44.1). Transfers by Pete Ebel 
  Archive
Source Information - Download Text | Download Zip
Grateful Dead
Nassau Coliseum - Uniondale - NY
March 23, 1994

Source Info:
Soundboard-> DAT

Transfer Info:
Dat (Panasonic SV-3700) -> Marantz CDR-615 -> CD (Late 90's)
Extract Wav-> Flac Level 8-> Tagged (16/44.1)


Transfers by Pete Ebel
September 16, 2017


Patch Info:
U.S. Blues (Complete Track) - Schoeps CMC521->Sonosax P/S->Sony D10 Pro II


Notes:
Fade out after Women Are Smarter/ Fade In So Many Roads (For CD Smoothness)



Set #1:
01. Shakedown Street
02. Little Red Rooster
03. Row Jimmy
04. El Paso
05. Might As Well
06. Promised Land

Set #2:
07. China Cat Sunflower
08. I Know You Rider
09. Women Are Smarter
10. So Many Roads
11. Truckin
12. Drumz
13. Space
14. I Need A Miracle
15. Standing On The Moon
16. Good Lovin'

Encore:
17. U.S. Blues




SHNTOOL OUTPUT:
    length     expanded size    cdr  WAVE problems  fmt   ratio  filename
    11:56.09      126323612 B   ---   --   ---xx   flac  0.6302  01 Shakedown Street.flac
    12:15.67      129811628 B   ---   --   ---xx   flac  0.5592  02 Little Red Rooster.flac
    11:15.68      119229980 B   ---   --   ---xx   flac  0.6134  03 Row Jimmy.flac
     5:32.74       58738892 B   ---   --   ---xx   flac  0.6475  04 El Paso.flac
     4:43.21       49970636 B   ---   --   ---xx   flac  0.6692  05 Might As Well.flac
     5:10.28       54749900 B   ---   --   ---xx   flac  0.6622  06 Promised Land.flac
     7:13.38       76470620 B   ---   --   ---xx   flac  0.6763  07 China Cat Sunflower.flac
     5:06.22       54030188 B   ---   --   ---xx   flac  0.6666  08 I Know You Rider.flac
    10:10.41      107700476 B   ---   --   ---xx   flac  0.6507  09 Women Are Smarter.flac
     7:03.67       74774828 B   ---   --   ---xx   flac  0.6590  10 So Many Roads.flac
    10:41.34      113152412 B   ---   --   ---xx   flac  0.6610  11 Truckin'.flac
    10:44.09      113622812 B   ---   --   ---xx   flac  0.5911  12 Drumz.flac
    12:41.68      134400380 B   ---   --   ---xx   flac  0.5797  13 Space.flac
     5:41.09       60173612 B   ---   --   ---xx   flac  0.6760  14 I Need A Miracle.flac
     8:53.02       94025948 B   ---   --   ---xx   flac  0.6694  15 Standing On The Moon.flac
     7:01.39       74356172 B   ---   --   ---xx   flac  0.6573  16 Good Lovin'.flac
     5:06.21       54027836 B   ---   --   ---xx   flac  0.6194  17 U. S. Blues.flac
   141:18.17     1495559932 B                            0.6325  (17 files)


Show Checksums
ffp
01 Shakedown Street.flac:6be71c39437ff34e3d1c3af585b52eab
02 Little Red Rooster.flac:3b3ed65306da5903887b5824a66c8528
03 Row Jimmy.flac:d32fc48e658c22e7c4db1b95ae786b58
04 El Paso.flac:14921a9074aac70e26a9a611032b6143
05 Might As Well.flac:af3eb656fc95fea77cb1ae5acead1a6b
06 Promised Land.flac:7c1f7f01b0a530931350e6611a6f4301
07 China Cat Sunflower.flac:0402aee3a536ff71dc4e826542175b31
08 I Know You Rider.flac:5d618f5160893243547301cd4d91ea22
09 Women Are Smarter.flac:fe232893a0200977510860c042441790
10 So Many Roads.flac:bffbcca762f6012b0ba540c899566f44
11 Truckin'.flac:85a367cb90b6f2747ebf7427ecc75fba
12 Drumz.flac:277b934b012e80d8222cc289b0ea94b2
13 Space.flac:540238181f51f0c091b90427c0cc2c86
14 I Need A Miracle.flac:dedf4f92438ebfe2f94f8d244c7b5548
15 Standing On The Moon.flac:89909330e507174f457089f51ef2b299
16 Good Lovin'.flac:6a7126f74cf3559c4c49ef9768604900
17 U. S. Blues.flac:8daf81df32cb2cdca5f7392632812e6a
flac-md5
82b34544260a6d534e12841c16dbcfaa *01 Shakedown Street.flac
09d9b75b6476d4f2ba17f488aef8079f *02 Little Red Rooster.flac
a17ee022f4a28abdc088636094d9b9cb *03 Row Jimmy.flac
c9a3b60d1ca321517384038f4bbd518b *04 El Paso.flac
2b99223127690bd68d072fa2c25a9dfa *05 Might As Well.flac
b8256eee7e2e9cd9eb273cc898e94f56 *06 Promised Land.flac
0e7f65eb47b6c202bb2250972adb9bb3 *07 China Cat Sunflower.flac
1375df41384d1e68e1241ef3d31ddb15 *08 I Know You Rider.flac
6ec43cd0e2914a1ad73926be0a1c357f *09 Women Are Smarter.flac
239792e8c0711fadbb41a1db360e4af5 *10 So Many Roads.flac
6578edd15ad9c2eb6763bd181285dbed *11 Truckin'.flac
1a11e9c491755ca6f44c0adf182b37f9 *12 Drumz.flac
e8481c6d5cb1fddb60680706ceac9db4 *13 Space.flac
d7dae00ae9734504e651f56bd7ecdde2 *14 I Need A Miracle.flac
8aa91d840ff803251992a28b4682d800 *15 Standing On The Moon.flac
0babac55c079728de18a9497bc3c11d0 *16 Good Lovin'.flac
18a4b5eb98028dd4136b10e4e75261ea *17 U. S. Blues.flac

Comments
Add Comment
Other Sources (comments)
Set 1: SBD... (2) Source: Audience (Naks,... (0) AUD fob (in hat) Schoeps... (0) flac16; Recording... (0) flac16; All Set 1 &... (0) flac16; Source:... (0) flac16/48kHz; Set 1... (0)
Date User Comment