Browse Collections Artists Sources   Search Dates

Add Show    List Management    Help


Grateful Dead 09/10/83
Santa Fe Downs, Santa Fe, NM
Comments Add Comment    Source Collectors    Add to Collection    Add to Want List    History
Source # 139379 Other Sources
Entered by Matt Vernon
Checksums flac-md5 , ffp
Disc Counts 0 / 0
Media Size
Uncompressed: 1.43 GB (1534988948 bytes)
Date Circulated
Date Added
09/22/2017
09/22/2017
Source Summary flac16; Matrix by Hunter Seamons using Final Cut Pro (FLAC > AIFF > Final Cut > AIFF CD tracking via Audacity > FLAC16 via xACT w/meta-tagging), of shnid's 139020 & 139299. 
  Archive
Source Information - Download Text | Download Zip
Grateful Dead
Santa Fe Downs
Santa Fe, NM
September 10, 1983

Jerry Garcia - Lead Guitar, Vocals
Mickey Hart - Drums
Bill Kreutzmann - Drums
Phil Lesh - Electric Bass, Vocals
Brent Mydland - Keyboards, Vocals
Bob Weir - Rhythm Guitar, Vocals


*Matrix*


-----------------------------------------------------------------
SBD (shnid=139299):

Recording Info:
SBD > Cassette Master > Reel > Dat (48k)

Transfer Info:
Dat (Sony PCM-R500) > Tascam DA-3000 > Samplitude Pro X3 Suite > FLAC/48k
(1 DVD FLAC)

All Transfers and Mastering By Charlie Miller
[email protected]
September 7, 2017

Patch Info:
(FOB) Sennheiser 441 > PCM > Dat supplies:
Big Railroad Blues (0:00 - 0:19)
[15 second cut during Minglewood Blues]
Man Smart (Woman Smarter) (0:00 - 0:09)
China Doll (7:54 - 8:09)
Cold Rain And Snow (0:00 - 0:10)

Notes:
-- Thanks to Rob Eaton for the Dat
-- Thanks to Jeff Silberman for the patch source

-----------------------------------------------------------------
AUD (shnid=139020):

Music from the Four Corners

billydee recording (patched out of): Beyerdynamics 180's > Sony TC-D5M > master audio cassette (FOB)

Larry Sellers & the Philly Crew Direct Stream Digital (DSD) Transfer: MAC > Nak CR7A w/ azimuth adjusted > Korg MR-1000 @ 5.8mhz > FLAC 24/96

Edited & Mastered in Audacity by Joe Noel, Flac 24/96

Checksum & tags created in xACT.

Patch:
- Source #84487 (Silberman) supplies
- s2t01; 0:00 - 0:14 (banter)
- s2t02; 0:00 - 0:04
- s2t03; 0:00 - 0:48 & 7:15 - 8:44 (tuning)
- s2t07; 0:00 - 1:02 (most of its tuning)
- s2t08; 2:32 - 3:14

Notes:
- Tape pauses were smoothed over with crossfades
- It rained, luckily it did not fish.
- Bucket up, this roller coaster only goes down hill.
- A rhythm section jam emerges from China Doll.

(J.Noel 08 August 2017)

-----------------------------------------------------------------
Thank you to Rob Eaton and Charlie Miller for the SBD transfer,
to billydee and Jeff Silberman for recording the show,
and to Joe Noel, Larry Sellers & the Philly Crew for the AUD transfer.

Matrix by Hunter Seamons using Final Cut Pro (FLAC > AIFF > Final Cut > AIFF CD tracking via Audacity > FLAC16 via xACT w/meta-tagging)
September 22, 2017


Set I
-----
d1t01 - The Music Never Stopped
d1t02 - They Love Each Other
d1t03 - My Brother Esau
d1t04 - Big Railroad Blues >
d1t05 - Beat It On Down The Line
d1t06 - Tennessee Jed
d1t07 - Minglewood Blues >
d1t08 - China Cat Sunflower >
d1t09 - I Know You Rider

Set II
-----
d1t10 - Women Are Smarter
d1t11 - Cumberland Blues
d2t01 - Playing In The Band >
d2t02 - China Doll >
d2t03 - Drums >
d2t04 - Space >
d2t05 - The Other One >
d2t06 - Goin' Down The Road Feeling Bad >
d2t07 - One More Saturday Night

Encore
------
d2t08 - Cold Rain And Snow


Notes:

A double rainbow appeared behind the stage during the second set. This show had the only Cold Rain And Snow encore.


    length     expanded size    cdr  WAVE problems  fmt   ratio  filename
     9:37.54      101909852 B   ---   --   ---xx   flac  0.6353  gd83-09-10d1t01.flac
     8:30.62       90109868 B   ---   --   ---xx   flac  0.6292  gd83-09-10d1t02.flac
     6:12.41       65717276 B   ---   --   ---xx   flac  0.6055  gd83-09-10d1t03.flac
     5:22.28       56866700 B   ---   --   ---xx   flac  0.6322  gd83-09-10d1t04.flac
     4:04.44       43145132 B   ---   --   ---xx   flac  0.6285  gd83-09-10d1t05.flac
     8:50.50       93609644 B   ---   --   ---xx   flac  0.5994  gd83-09-10d1t06.flac
     7:14.56       76689356 B   ---   --   ---xx   flac  0.6293  gd83-09-10d1t07.flac
     6:17.37       66589868 B   ---   --   ---xx   flac  0.6235  gd83-09-10d1t08.flac
     5:11.46       54968636 B   ---   --   ---xx   flac  0.6273  gd83-09-10d1t09.flac
     7:28.68       79187180 B   ---   --   ---xx   flac  0.5822  gd83-09-10d1t10.flac
     8:27.66       89590076 B   ---   --   ---xx   flac  0.5922  gd83-09-10d1t11.flac
    12:13.70      129465884 B   ---   --   ---xx   flac  0.6022  gd83-09-10d2t01.flac
     9:27.59      100157612 B   ---   --   ---xx   flac  0.5822  gd83-09-10d2t02.flac
     8:03.73       85372940 B   ---   --   ---xx   flac  0.5451  gd83-09-10d2t03.flac
    10:55.71      115709036 B   ---   --   ---xx   flac  0.4995  gd83-09-10d2t04.flac
     9:33.02      101081948 B   ---   --   ---xx   flac  0.5695  gd83-09-10d2t05.flac
     6:38.51       70327196 B   ---   --   ---xx   flac  0.6352  gd83-09-10d2t06.flac
     5:01.10       53119964 B   ---   --   ---xx   flac  0.6114  gd83-09-10d2t07.flac
     5:47.68       61370780 B   ---   --   ---xx   flac  0.6250  gd83-09-10d2t08.flac
   145:01.56     1534988948 B                            0.5977  (19 files)




Show Checksums
flac-md5
99cff2f119372c7332833d052c5fd434 *gd83-09-10d1t01.flac
fbf58a33ca20fff3c2e1b9fdbbad01c0 *gd83-09-10d1t02.flac
0487b780030d102dc533ba87e00b749e *gd83-09-10d1t03.flac
b65b28c6e1cce8448b671233c8a6227e *gd83-09-10d1t04.flac
02ca79994377bf855581f4c800cf3797 *gd83-09-10d1t05.flac
f92bd6a61bcb2eaeaf35ea4452bce83c *gd83-09-10d1t06.flac
0498c9dad8f465f0ca6fff3a8c49df52 *gd83-09-10d1t07.flac
de81d619fff5954228d8adb12785fa84 *gd83-09-10d1t08.flac
cec6c5ebba5bf3610d0589c306d1075f *gd83-09-10d1t09.flac
d93bc26153f269266461f486b1405f3c *gd83-09-10d1t10.flac
7a6b38fcde8e3857b96adeb9330b0d1d *gd83-09-10d1t11.flac
2a195a3cc252d352b4f2248c91eec181 *gd83-09-10d2t01.flac
6dbb88d48f452ce0682dead5332dd6d0 *gd83-09-10d2t02.flac
81f380f45d32818a35a5f187c86abaff *gd83-09-10d2t03.flac
37cf9ef6cb0f2e4a67057ed9d08aee31 *gd83-09-10d2t04.flac
5dfcb2b516ca5b9d8f184fd2434dce6e *gd83-09-10d2t05.flac
44aded3c36fdf11ab83d627986d8b857 *gd83-09-10d2t06.flac
6fd16973af63c4058caf6439ef964bcf *gd83-09-10d2t07.flac
955048efbc8b1f3e2320e5bfa5750234 *gd83-09-10d2t08.flac
ffp
gd83-09-10d1t01.flac:5bd688eac9296e603e873bfe869332c3
gd83-09-10d1t02.flac:92fe3c068e7685aae27460eeec121bbc
gd83-09-10d1t03.flac:7a673eb1152ce5ddc9a14117dc0b83f7
gd83-09-10d1t04.flac:f21aa552ff4f88f0e7d321e0d7ebddaa
gd83-09-10d1t05.flac:0c83c5ac7fcbb606278f57452de69dc2
gd83-09-10d1t06.flac:a635e17bf422b84366a000e65e5a82bd
gd83-09-10d1t07.flac:946b58a3e2cb4afeb52fdccb22397fe4
gd83-09-10d1t08.flac:9dbc85de496689e819e9fa6133eb6751
gd83-09-10d1t09.flac:7d3823fbaf3dfcf63c0512f06e0d7b52
gd83-09-10d1t10.flac:e81497b4e12900c129d69b1d735b1eb6
gd83-09-10d1t11.flac:034727c6e94f2269a0357cda4a682b20
gd83-09-10d2t01.flac:22ecfdfb9a6e95f0d41cead7c0cdf0f5
gd83-09-10d2t02.flac:4df938941469fb2ef2d81435e11cdd0c
gd83-09-10d2t03.flac:3de55cc28aff868f52c4a0342cf6d833
gd83-09-10d2t04.flac:cf10af38d8987821add16fea0c990d4c
gd83-09-10d2t05.flac:23bfd7fcdcabdbe5a868895d23d7c7d3
gd83-09-10d2t06.flac:4c0d41278083855547f5b044ada49867
gd83-09-10d2t07.flac:48d599e6d60ae14213b350b9985db0ac
gd83-09-10d2t08.flac:2ffb35b323baa388ec2123c9bb66e118

Comments
Add Comment
Other Sources (comments)
Sources: Primary: Jeff... (0) flac16; Source:... (0) flac16; Recording... (0) flac16; Analog... (0) flac24; 2 x... (0) flac16; Lineage:... (0) flac16; source: 2... (0) flac24; billydee... (0) flac16/48kHz;... (0) flac16; billydee... (0) flac16/44.1 ... (0) flac24/48 Master:... (0)
Date User Comment