Browse Collections Artists Sources   Search Dates

Add Show    List Management    Help


Grateful Dead 05/08/81
Nassau Coliseum, Uniondale, NY
Comments Add Comment    Source Collectors    Add to Collection    Add to Want List    History
Source # 139412 Other Sources
Entered by Matt Vernon
Checksums ffp , flac-md5
Disc Counts 0 / 0
Media Size Compressed: 614.69 MB (644544352 bytes)
Uncompressed: 1 GB (1078357160 bytes)
Date Circulated
Date Added
09/24/2017
09/24/2017
Source Summary flac16; Set 2 AUD: Unknown mics & lead decks > Sony TC-D5 > Maxell XLIIS-90, FOB recording by Brian Schley; Transfer: MAC > Nakamichi CR-5A > Edirol FA-66 > Wavelab 2448 > CD-Wave (24bit output) > R8Brain > TLH > FLAC 1644 tagged; Transferred by Andrew F. 09/2017 
  Archive
Source Information - Download Text | Download Zip
GRATEFUL DEAD
Nassau Coliseum
Uniondale NY
05-08-1981
Second Set

16bit/44.1kHz file-set

s2t01 Shakedown Street >
s2t02 Samson & Delilah
s2t03 Terrapin >
s2t04 Playin' in the Band >
s2t05 Drums (with Ken Kesey) >
s2t06 Space >
s2t07 Not Fade Away >
s2t08 Stella Blue >
s2t09 Sugar Magnolia
s2t10 Encore: U.S. Blues

AUD: Unknown mics & lead decks > Sony TC-D5 > Maxell XLIIS-90,
FOB recording by Brian Schley.

Transfer: MAC > Nakamichi CR-5A > Edirol FA-66 > Wavelab 2448 >
CD-Wave (24bit output) > R8Brain > TLH > FLAC 1644 tagged.
Transferred by Andrew F. 09/2017

Note: Unfortunately, Tape #1 with 1st Set & Shakedown is lost :(
However, this is such a nice recording and show, it's worthy of
entry into the archive as-is, and hopefully the missing tape will
surface someday. ID-136537 (thanks Jim!) covers all of Shakedown,
first 0:36 of Samson, and two tape-flip gaps near start of Space.
Thanks Jon Pasternak & Charlie McGuth for organizing this project!

    length     expanded size    cdr  WAVE problems  fmt   ratio  filename
    17:00.43      180029180 B   ---   --   ---xx   flac  0.5994  gd1981-05-08s2t01.flac
     7:01.70       74429084 B   ---   --   ---xx   flac  0.6082  gd1981-05-08s2t02.flac
    13:09.33      139257260 B   ---   --   ---xx   flac  0.5940  gd1981-05-08s2t03.flac
    16:44.14      177138572 B   ---   --   ---xx   flac  0.5970  gd1981-05-08s2t04.flac
     7:24.59       78460412 B   ---   --   ---xx   flac  0.5920  gd1981-05-08s2t05.flac
     6:35.45       69783884 B   ---   --   ---xx   flac  0.5764  gd1981-05-08s2t06.flac
     9:08.14       96700172 B   ---   --   ---xx   flac  0.6026  gd1981-05-08s2t07.flac
     9:33.73      101248940 B   ---   --   ---xx   flac  0.5767  gd1981-05-08s2t08.flac
     9:11.12       97224668 B   ---   --   ---xx   flac  0.6154  gd1981-05-08s2t09.flac
     6:03.22       64084988 B   ---   --   ---xx   flac  0.6201  gd1981-05-08s2t10.flac
   101:53.10     1078357160 B                            0.5977  (10 files)

No errors occured.


Show Checksums
ffp
gd1981-05-08s2t01.flac:863043c4c713fd8ffd0110967b1ce8ff
gd1981-05-08s2t02.flac:d6e7b2f4889d0ff940f19c5323882c09
gd1981-05-08s2t03.flac:e50f8c4a13a4cc2dc1acfb14bb28fb1e
gd1981-05-08s2t04.flac:096bb042531b74c6db1e644a19ce7dba
gd1981-05-08s2t05.flac:d277fc1535142d21924c3f3b26038713
gd1981-05-08s2t06.flac:35d099b9840d48a7337df8351182a67e
gd1981-05-08s2t07.flac:50b3576e7dc4516574eab98be5e574c3
gd1981-05-08s2t08.flac:788c563175e277cc4e108c353fd0394b
gd1981-05-08s2t09.flac:7637db1cd7ae47990d5f4c2b82f42e3f
gd1981-05-08s2t10.flac:cf55664d99ae7098f2be8f0eb4e083f8
flac-md5
006c01b96383177a1a2f47a81347b576 *gd1981-05-08s2t01.flac
eb138f291c0b76e593f20b66524a67c2 *gd1981-05-08s2t02.flac
adc9e9f03be5d1e5f58346814324e6cf *gd1981-05-08s2t03.flac
f371eaa4abc92894541b10bd1486a0a1 *gd1981-05-08s2t04.flac
950574df5ebe4686c9fb2e48a4b32615 *gd1981-05-08s2t05.flac
9df9404ca7bd2d70124f663ae7b3b7ac *gd1981-05-08s2t06.flac
3ee40b123622e3d62506c37d48a6f9a3 *gd1981-05-08s2t07.flac
dd940892ce827f55acea1719d4576169 *gd1981-05-08s2t08.flac
d4d269908d5d59c05b7209ce4e3335ca *gd1981-05-08s2t09.flac
e432e2231a11d6cf25eed72ec6953bac *gd1981-05-08s2t10.flac

Comments
Add Comment
Other Sources (comments)
Recording by Jim Wise: FOB... (1) Recording by Barry... (4) SBD> Master Cassette> Dat... (0) flac16; MATRIX MIX:... (0) flac16; Recording... (0) flac24; Cassette... (0) flac24; source: aud... (0) flac16; source: aud... (0) flac24; Set 2 AUD:... (0) flac16; Source Info:... (0) flac24; Source Info:... (0)
Date User Comment