Browse Collections Artists Sources   Search Dates

Add Show    List Management    Help


Grateful Dead 05/08/81
Nassau Coliseum, Uniondale, NY
Comments Add Comment    Source Collectors    Add to Collection    Add to Want List    History
Source # 139413 Other Sources
Entered by Matt Vernon
Checksums ffp , flac-md5
Disc Counts 0 / 0
Media Size Compressed: 1.19 GB (1276817036 bytes)
Uncompressed: 1.64 GB (1760580278 bytes)
Date Circulated
Date Added
09/24/2017
09/24/2017
Source Summary flac24; Set 2 AUD: Unknown mics & lead decks > Sony TC-D5 > Maxell XLIIS-90, FOB recording by Brian Schley; Transfer: MAC > Nakamichi CR-5A > Edirol FA-66 > Wavelab 2448 > CD-Wave (24bit output) > TLH > FLAC 2448 tagged; Transferred by Andrew F. 09/2017 
  Archive
Source Information - Download Text | Download Zip
GRATEFUL DEAD
Nassau Coliseum
Uniondale NY
05-08-1981
Second Set

24bit/48kHz file-set

s2t01 Shakedown Street >
s2t02 Samson & Delilah
s2t03 Terrapin >
s2t04 Playin' in the Band >
s2t05 Drums (with Ken Kesey) >
s2t06 Space >
s2t07 Not Fade Away >
s2t08 Stella Blue >
s2t09 Sugar Magnolia
s2t10 Encore: U.S. Blues

AUD: Unknown mics & lead decks > Sony TC-D5 > Maxell XLIIS-90,
FOB recording by Brian Schley.

Transfer: MAC > Nakamichi CR-5A > Edirol FA-66 > Wavelab 2448 >
CD-Wave (24bit output) > TLH > FLAC 2448 tagged. Transferred by
Andrew F. 09/2017

Note: Unfortunately, Tape #1 with 1st Set & Shakedown is lost :(
However, this is such a nice recording and show, it's worthy of
entry into the archive as-is, and hopefully the missing tape will
surface someday. ID-136537 (thanks Jim!) covers all of Shakedown,
first 0:36 of Samson, and two tape-flip gaps near start of Space.
Thanks Jon Pasternak & Charlie McGuth for organizing this project!

    length     expanded size    cdr  WAVE problems  fmt   ratio  filename
    17:00.573     293925164 B   cxx   --   ---xx   flac  0.7201  gd1981-05-08s2t01.flac
     7:01.933     121516844 B   cxx   --   ---xx   flac  0.7329  gd1981-05-08s2t02.flac
    13:09.440     227358764 B   cxx   --   ---xx   flac  0.7248  gd1981-05-08s2t03.flac
    16:44.192     289207412 B   cxx   --   ---xx   flac  0.7269  gd1981-05-08s2t04.flac
     7:24.787     128098604 B   cxx   --   ---xx   flac  0.7233  gd1981-05-08s2t05.flac
     6:35.600     113932844 B   cxx   --   ---xx   flac  0.7121  gd1981-05-08s2t06.flac
     9:08.187     157877804 B   cxx   --   ---xx   flac  0.7291  gd1981-05-08s2t07.flac
     9:33.973     165304364 B   cxx   --   ---xx   flac  0.7128  gd1981-05-08s2t08.flac
     9:11.160     158734124 B   cxx   --   ---xx   flac  0.7368  gd1981-05-08s2t09.flac
     6:03.279     104624354 B   cxx   --   ---xx   flac  0.7401  gd1981-05-08s2t10.flac
   101:53.124    1760580278 B                            0.7252  (10 files)

No errors occured.


Show Checksums
ffp
gd1981-05-08s2t01.flac:f7cbb9bb3403f1ceaf7974311e7e2476
gd1981-05-08s2t02.flac:72336ff4e29ae3c07788b0a73264b407
gd1981-05-08s2t03.flac:3ad25425a93410a1ce342b540e230bd6
gd1981-05-08s2t04.flac:562b6d6c2c4c2660ca90f4020db13302
gd1981-05-08s2t05.flac:2ce3f77431e001a174d9777e37433c35
gd1981-05-08s2t06.flac:2c9cb7f0434f82cfc7d4fec7f9ff8c3f
gd1981-05-08s2t07.flac:faf0ab6fac33c0ca4cd68d548beaa55a
gd1981-05-08s2t08.flac:7a43d2d36358e8d67d90d1de1face3a7
gd1981-05-08s2t09.flac:10e7ef950c41e4cdc5a2e0abcddfbfe3
gd1981-05-08s2t10.flac:1dbb2d16c21156c16cc823562d67ebf9
flac-md5
05c2f5365be5c39b3c32e5288cb2f641 *gd1981-05-08s2t01.flac
2a3afacb02e55fb9308dd33a22b9c2d5 *gd1981-05-08s2t02.flac
90d6628006ca1a45a2c5c88e5cedfc02 *gd1981-05-08s2t03.flac
686e859dc53f301c67cf343de36bd91c *gd1981-05-08s2t04.flac
3f74b3d13abee947f99042ad91de3e5a *gd1981-05-08s2t05.flac
1b908a7a14f6d423faadf4444b5064f9 *gd1981-05-08s2t06.flac
fc63cb106c4bba0e1d88960eb8eb3d5a *gd1981-05-08s2t07.flac
f81f647ea65875d8fc78dc93cf1dcae2 *gd1981-05-08s2t08.flac
745437e188e138227f9c2d7cb88ce194 *gd1981-05-08s2t09.flac
7aa6bcb63a4be7c5b5bb55971a6e96d1 *gd1981-05-08s2t10.flac

Comments
Add Comment
Other Sources (comments)
Recording by Jim Wise: FOB... (1) Recording by Barry... (4) SBD> Master Cassette> Dat... (0) flac16; MATRIX MIX:... (0) flac16; Recording... (0) flac24; Cassette... (0) flac24; source: aud... (0) flac16; source: aud... (0) flac16; Set 2 AUD:... (0) flac16; Source Info:... (0) flac24; Source Info:... (0)
Date User Comment