Browse Collections Artists Sources   Search Dates

Add Show    List Management    Help


Grateful Dead 09/25/81
Stabler Arena, Lehigh U, Bethlehem, PA
Comments Add Comment    Source Collectors    Add to Collection    Add to Want List    History
Source # 139467 Other Sources
Entered by Matt Vernon
Checksums ffp , flac-md5
Disc Counts 0 / 0
Media Size Compressed: 1.15 GB (1229875556 bytes)
Uncompressed: 1.81 GB (1946175260 bytes)
Date Circulated
Date Added
09/28/2017
09/28/2017
Source Summary flac16; Source info: Master FOB Audience Cassette; Nakamichi CM300's + CP4's > DAT > CDR; Transfer info: Master cassette played back via Nak BX300 > Panasonic SV-3500 > HHB 850 > EAC > Cool Edit Pro; Transfer by Scott Clugston; Mastered by Scott Clugston 
  Archive
Source Information - Download Text | Download Zip
Grateful Dead
9/25/81
Stabler Arena
Lehigh University
Bethlehem, PA

While tidying up, I found this among the stacks of old discs.
This has not circulated previously (that I'm aware of, anyway).

Source info: Master FOB Audience Cassette; Nakamichi CM300's + CP4's > DAT > CDR

Transfer info: Master cassette played back via Nak BX300 > Panasonic SV-3500 > HHB 850 > EAC > Cool Edit Pro

Transfer by Scott Clugston
Mastered by Scott Clugston
Circulated 9/27/2017

   Disc 1
   1st Set
1. Minglewood Blues
2. FOTD
3. El Paso
4. Peggy O
5. Red Rooster
6. Birdsong>
7. BIODTL
8. Cumberland Blues
9. Passenger

   Disc 2
10. Althea
11. The Music Never Stopped
   2nd Set
12. Might As Well>
13. Samson & Delilah
14. Scarlet Begonias>
15. Fire on the Mountain
16. Good Times Blues
17. Lost Sailor>
18. Saint of Circumstance>
19. Drums//>
    Space

   Disc 3
20. The Wheel>
21. Sugar Magnolia>
22. Black Peter>
23. A & A>
24. Sunshine Daydream
   Encore
25. US Blues


    length     expanded size    cdr  WAVE problems  fmt   ratio  filename
     7:20.47       77726588 B   ---   --   ---xx   flac  0.6283  gd81-09-25 t01.flac
     9:08.31       96740156 B   ---   --   ---xx   flac  0.5999  gd81-09-25 t02.flac
     5:19.39       56363372 B   ---   --   ---xx   flac  0.6058  gd81-09-25 t03.flac
     6:40.18       70602380 B   ---   --   ---xx   flac  0.5771  gd81-09-25 t04.flac
     8:23.11       88755116 B   ---   --   ---xx   flac  0.6396  gd81-09-25 t05.flac
    10:24.51      110193596 B   ---   --   ---xx   flac  0.6275  gd81-09-25 t06.flac
     7:21.34       77872412 B   ---   --   ---xx   flac  0.5892  gd81-09-25 t07.flac
     6:20.44       67135532 B   ---   --   ---xx   flac  0.6326  gd81-09-25 t08.flac
     4:54.19       51906332 B   ---   --   ---xx   flac  0.6556  gd81-09-25 t09.flac
     8:54.15       94232924 B   ---   --   ---xx   flac  0.5686  gd81-09-25 t10.flac
     8:23.14       88762172 B   ---   --   ---xx   flac  0.7191  gd81-09-25 t11.flac
     4:29.19       47496332 B   ---   --   ---xx   flac  0.6721  gd81-09-25 t12.flac
     8:42.67       92238428 B   ---   --   ---xx   flac  0.6579  gd81-09-25 t13.flac
    11:22.03      120311900 B   ---   --   ---xx   flac  0.6675  gd81-09-25 t14.flac
    11:08.52      117957548 B   ---   --   ---xx   flac  0.6469  gd81-09-25 t15.flac
     6:24.59       67876412 B   ---   --   ---xx   flac  0.6342  gd81-09-25 t16.flac
     6:30.44       68899532 B   ---   --   ---xx   flac  0.5996  gd81-09-25 t17.flac
     7:32.39       79824572 B   ---   --   ---xx   flac  0.6856  gd81-09-25 t18.flac
    12:15.47      129764588 B   ---   --   ---xx   flac  0.5058  gd81-09-25 t19.flac
     5:27.37       57769868 B   ---   --   ---xx   flac  0.6608  gd81-09-25 t20.flac
     5:13.51       55333196 B   ---   --   ---xx   flac  0.7218  gd81-09-25 t21.flac
     8:30.65       90116924 B   ---   --   ---xx   flac  0.6188  gd81-09-25 t22.flac
     3:43.07       39353708 B   ---   --   ---xx   flac  0.6990  gd81-09-25 t23.flac
     3:38.66       38610476 B   ---   --   ---xx   flac  0.7208  gd81-09-25 t24.flac
     5:42.01       60331196 B   ---   --   ---xx   flac  0.6508  gd81-09-25 t25.flac
   183:52.55     1946175260 B                            0.6319  (25 files)

No errors occured.


Show Checksums
ffp
gd81-09-25 t01.flac:9dbc5844a51913f217d12a8a788e7404
gd81-09-25 t02.flac:41b5801fa69a83c9f3b0ec847df24d73
gd81-09-25 t03.flac:efffedc983dbc7706a28d58a9fba52ac
gd81-09-25 t04.flac:2cb6d730f4dfbcdc1ea1324f3839d165
gd81-09-25 t05.flac:b78d0ede689ff48579fa8e5adf9d0f11
gd81-09-25 t06.flac:ba9dff155b4d5b16c633cc236356f5c6
gd81-09-25 t07.flac:92eee2753c7bf95a66d087b46fe8906d
gd81-09-25 t08.flac:fbff8fbea29399609e074894457e20bc
gd81-09-25 t09.flac:6cd1a347ebdfa53aa9348e692eccc9e5
gd81-09-25 t10.flac:46ab4719c278d406b9de7a4bd1c74ebb
gd81-09-25 t11.flac:d09fba061fad5694584a78cbe87e2b5e
gd81-09-25 t12.flac:418ac84d0dba6e5f10622a1c35168850
gd81-09-25 t13.flac:cef04c8ac1edf76f4d3724f5f523c715
gd81-09-25 t14.flac:2bfb786c5073590fe906139a82e5f482
gd81-09-25 t15.flac:a1835f2eba3cadaec92cb287bc2cca58
gd81-09-25 t16.flac:ffdd4d79df3f8e1ca3ca7cadcb063597
gd81-09-25 t17.flac:e82bff5f650942c4539daae8bcb40f32
gd81-09-25 t18.flac:d29df2539342250aef0027b4983ccb0d
gd81-09-25 t19.flac:b680ef52a0b152dc3a55ad5d96e5ae5f
gd81-09-25 t20.flac:8e169128ecca272f71a24c3c0e55049a
gd81-09-25 t21.flac:6fcac3175724b7d770229056a1b4acf0
gd81-09-25 t22.flac:1c668ee1097b2bdcf0c7420693739efb
gd81-09-25 t23.flac:89b45351f92e9a3ee2bd26c58e434d9f
gd81-09-25 t24.flac:17719361e19f636c9d62fa1ea76be8cb
gd81-09-25 t25.flac:a5c0da08385624626b5d677fde29e391
flac-md5
f8a78d8810913c1a439ecbf2801aea93 *gd81-09-25 t01.flac
b2ba631b57f75b8f318e294557c29f38 *gd81-09-25 t02.flac
911dc01b77bccc477af3d1a8c5bfd8f6 *gd81-09-25 t03.flac
fe1ef03609c49bdcd94fc534db4b55db *gd81-09-25 t04.flac
b4dfbe4b91ed8a7e95c4d4058ca7bfdc *gd81-09-25 t05.flac
7dccc124780f60853f1fe4269d71de8c *gd81-09-25 t06.flac
3986f3b403710b9e283c2ee14166b6c7 *gd81-09-25 t07.flac
8d4ec0c871342c314c7b06a415ddb64c *gd81-09-25 t08.flac
c9343e5bc9e1d0fb46c1e8d46bc77ddf *gd81-09-25 t09.flac
90f37ebef0ad510a6a41c54f389c8dee *gd81-09-25 t10.flac
4c6e4acaa86fc44e3389893c23be83c3 *gd81-09-25 t11.flac
283df97c1a75a669c0536aefc4c51983 *gd81-09-25 t12.flac
3731abae878a57e7d630e438dde95a84 *gd81-09-25 t13.flac
f47dd5a3342bab6182e2f5cde1b6d48d *gd81-09-25 t14.flac
15ccd97d4b5aeb0650b7499b12e0a1a0 *gd81-09-25 t15.flac
dce3127c9120d3c20236c92385ffe6f2 *gd81-09-25 t16.flac
cf873fe255c5461d91d9f1e04428f570 *gd81-09-25 t17.flac
b95045f80ef0330a0c2a35f84cc1ab60 *gd81-09-25 t18.flac
3e055c9e930465bed951c4d4ee9493e6 *gd81-09-25 t19.flac
555a19f37b64d34faf433f075dadf4fd *gd81-09-25 t20.flac
10add8cc8446a988a49f677f8e6cf711 *gd81-09-25 t21.flac
bd5519556e3d04fd13a533e1a31fa157 *gd81-09-25 t22.flac
939d2f21aa916f9d143d28cd6a8a0110 *gd81-09-25 t23.flac
4c3a09126c31ebac0954f6c4e994b61a *gd81-09-25 t24.flac
4dc64a5ae858a1ed129c17a227ab76b9 *gd81-09-25 t25.flac

Comments
Add Comment
Other Sources (comments)
Master Soundboard Cassette... (17) Source: MAC>DAT>CDR... (3) Recording by Steve Rolfe.... (0) flac16; Recording... (0) flac16; Source Info:... (0) flac24; Source Info:... (0)
Date User Comment
10/25/2017 nfagdtrfb recording matches 13725, this one mastered differently and very slightly different speed