Browse Collections Artists Sources   Search Dates

Add Show    List Management    Help


Grateful Dead 09/01/79
Holleder Memorial Stadium, Rochester, NY
Comments Add Comment    Source Collectors    Add to Collection    Add to Want List    History
Source # 139488 Other Sources
Entered by Matt Vernon
Checksums ffp , flac-md5
Disc Counts 0 / 0
Media Size
Uncompressed: 5.03 GB (5399747660 bytes)
Date Circulated
Date Added
09/30/2017
09/30/2017
Source Summary flac24; Source: (FOB) Nakamichi 700 > Sony D5M Cassette Master (Maxell UDXLII) - taped by Bob Wagner; Transfer: Cassette > Nakamichi CR-7A > Tascam DA-3000 >DSF 1-bit/5.8 MHz; Conversion by Charlie Miller : DSF > KORG AudioGate 4 > wav 24/96; Lineage: wav 24/96 > Adobe Audition 3.0 > iZotope RX 6 Advanced > iZotope Ozone 5 Advanced > CD Wave > TLH > Flac 24 edited and mastered SIRMick 2017 
  Archive
Source Information - Download Text | Download Zip
Grateful Dead
Holleder Stadium
Rochester, NY
09/01/1979

Source: (FOB) Nakamichi 700 > Sony D5M Cassette Master (Maxell UDXLII) - taped by Bob Wagner
Transfer: Cassette > Nakamichi CR-7A > Tascam DA-3000 >DSF 1-bit/5.8 MHz
                 Conversion by Charlie Miller : DSF > KORG AudioGate 4 > wav 24/96
Lineage: wav 24/96 > Adobe Audition 3.0 > iZotope RX 6 Advanced > iZotope Ozone 5 Advanced > CD Wave > TLH > Flac 24



Set I

01   tuning
02   Mississippi Half-Step Uptown Toodeloo >
03   Franklin's Tower
04   tuning
05   Me And My Uncle >
06   Big River
07   Friend Of The Devil
08   tuning
09   Looks Like Rain
10   tuning
11   Don't Ease Me In
12   tuning
13   Lost Sailor  >
14   Saint Of Circumstance


Set II

01   tuning/banter
02   Scarlet Begonias >
03   Fire On The Mountain >
04   Drums  >
05   Space >
06   Wharf Rat >
07   I Need A Miracle >
08   Bertha  >
09   Good Lovin'
10   tuning/banter

encore

11   One More Saturday Night




Notes:

- All tracks have been pitch corrected
- The tape flip in "Drums", 7:20-8:32, has been patched with SBD > Cassette Master (Dolby B) > Cassette (Dolby C) > TC2000 EQ (24bit) > Sonic Solutions > CD, provided my David Gans and mastered by Charlie Miller.



Thanks to David Gans and Charlie Miller for the patch source. Thanks to Bob Wagner for this sweet recording and Charlie Miller for the transfer.



edited and mastered
SIRMick
September 2017


shntool output:

    length     expanded size    cdr  WAVE problems  fmt   ratio  filename
     1:36.840      55779884 B   cxx   --   ---xx   flac  0.6790  gd1979-09-01s1t01.flac
    10:04.733     348326444 B   cxx   --   ---xx   flac  0.6815  gd1979-09-01s1t02.flac
    10:29.907     362826284 B   cxx   --   ---xx   flac  0.6839  gd1979-09-01s1t03.flac
     2:49.467      97612844 B   cxx   --   ---xx   flac  0.6677  gd1979-09-01s1t04.flac
     3:12.800     111052844 B   cxx   --   ---xx   flac  0.6860  gd1979-09-01s1t05.flac
     6:19.760     218741804 B   cxx   --   ---xx   flac  0.6880  gd1979-09-01s1t06.flac
     9:13.347     318727724 B   cxx   --   ---xx   flac  0.6810  gd1979-09-01s1t07.flac
     1:49.933      63321644 B   cxx   --   ---xx   flac  0.6572  gd1979-09-01s1t08.flac
     7:32.027     260367404 B   cxx   --   ---xx   flac  0.6745  gd1979-09-01s1t09.flac
     1:35.213      54842924 B   cxx   --   ---xx   flac  0.6574  gd1979-09-01s1t10.flac
     3:23.160     117020204 B   cxx   --   ---xx   flac  0.6848  gd1979-09-01s1t11.flac
     2:29.680      86215724 B   cxx   --   ---xx   flac  0.6597  gd1979-09-01s1t12.flac
     6:40.413     230638124 B   cxx   --   ---xx   flac  0.6766  gd1979-09-01s1t13.flac
     6:49.653     235960364 B   cxx   --   ---xx   flac  0.6879  gd1979-09-01s1t14.flac
     1:26.933      50073644 B   cxx   --   ---xx   flac  0.6679  gd1979-09-01s2t01.flac
    13:17.640     459440684 B   cxx   --   ---xx   flac  0.6866  gd1979-09-01s2t02.flac
    16:40.947     576545324 B   cxx   --   ---xx   flac  0.6818  gd1979-09-01s2t03.flac
     9:46.040     337559084 B   cxx   --   ---xx   flac  0.6690  gd1979-09-01s2t04.flac
     5:11.000     179136044 B   cxx   --   ---xx   flac  0.6853  gd1979-09-01s2t05.flac
    10:20.933     357657644 B   cxx   --   ---xx   flac  0.6820  gd1979-09-01s2t06.flac
     4:44.027     163599404 B   cxx   --   ---xx   flac  0.6905  gd1979-09-01s2t07.flac
     7:11.333     248448044 B   cxx   --   ---xx   flac  0.6936  gd1979-09-01s2t08.flac
     6:35.307     227696684 B   cxx   --   ---xx   flac  0.6964  gd1979-09-01s2t09.flac
     2:05.960      72553004 B   cxx   --   ---xx   flac  0.6749  gd1979-09-01s2t10.flac
     4:47.507     165603884 B   cxx   --   ---xx   flac  0.7024  gd1979-09-01s2t11.flac
   156:14.560    5399747660 B                            0.6824  (25 files)


Show Checksums
ffp
gd1979-09-01s1t01.flac:e22168e3c7a9d8632a36331941e71781
gd1979-09-01s1t02.flac:cdff3eb5c36065b94eaa58ea758cb9c6
gd1979-09-01s1t03.flac:3961650e827de9814cbc35f61335fa70
gd1979-09-01s1t04.flac:8307d5e332abe6281b8baf60b08de686
gd1979-09-01s1t05.flac:67befceab4124e74ec492f5c516ff7e0
gd1979-09-01s1t06.flac:db29df05132eb11f70dafad9cdfb78c9
gd1979-09-01s1t07.flac:0b5dd6b80d5e27b0f5ce1e3d5c41d6d9
gd1979-09-01s1t08.flac:315b887ea1180b13816b0fd3ffcd0655
gd1979-09-01s1t09.flac:f861b10bf7ffe03d1e1a64c194d28541
gd1979-09-01s1t10.flac:d99fdb976d9ce3ea37d35ca3e95ca16a
gd1979-09-01s1t11.flac:90833d3adca4a6c0a7997cc33d065e6a
gd1979-09-01s1t12.flac:54c57637f99816f81141210a4cf9f144
gd1979-09-01s1t13.flac:cd311a07c5c54578e56a19f541d0abe5
gd1979-09-01s1t14.flac:09660bb1ff91659fd56b41307bacda1f
gd1979-09-01s2t01.flac:6120592fab19e963acde71f6dd954a34
gd1979-09-01s2t02.flac:846d11b81132cb874740e0112b94bb96
gd1979-09-01s2t03.flac:865d62c09c8dd0fbbbc6712b49926fce
gd1979-09-01s2t04.flac:95f425e1f57072f3eaf92baa35118d24
gd1979-09-01s2t05.flac:e90056857925d7567b72f3c16bfad971
gd1979-09-01s2t06.flac:55da5ff8da737bca334678bd467fb7f4
gd1979-09-01s2t07.flac:1d0a36ceed3ab9888a1dd6610c2c2d7a
gd1979-09-01s2t08.flac:2146376c22b099f5129eb72bca5c38cd
gd1979-09-01s2t09.flac:e31fe2ea82e461e6e937bf5f80103b3a
gd1979-09-01s2t10.flac:41115b12480c3af5d076bfd2c076337b
gd1979-09-01s2t11.flac:bf97f29fe56eac8da4cdd2a6261aa855
flac-md5
aafd5093c11e0d4cba62443f949382b9 *gd1979-09-01s1t01.flac
9b28cbd6e0e79f987347826fa81d43de *gd1979-09-01s1t02.flac
f76d2076e17f5da2f73d9278bea5d4bf *gd1979-09-01s1t03.flac
5d0448109e86c1da55a8866edef866de *gd1979-09-01s1t04.flac
05a4da078b03723976e3cbd9f9002d21 *gd1979-09-01s1t05.flac
50647d6ac84f2e91c943c9ce12232950 *gd1979-09-01s1t06.flac
96b9827d026525f6d52a0ff86c60bfbf *gd1979-09-01s1t07.flac
8a7f84d56de6a2bae91a3f025649daa8 *gd1979-09-01s1t08.flac
f4fae45a083dc2af94761e7454085765 *gd1979-09-01s1t09.flac
4e52cff8c91560003a3bb5b20ba364e5 *gd1979-09-01s1t10.flac
56f0cd3aa71a34a4dace0d2d523b865b *gd1979-09-01s1t11.flac
1bab825c5f233566c1cf8c088a5c00a9 *gd1979-09-01s1t12.flac
11718af3b87d3dad8071408b35f60209 *gd1979-09-01s1t13.flac
91f7034d0bb26c3540df122940e1889d *gd1979-09-01s1t14.flac
ced28469a29b282ea2afa735059cda9c *gd1979-09-01s2t01.flac
d69cb27439fd80c74c30fad4ccf46d12 *gd1979-09-01s2t02.flac
91903185f0f1822b05ffcce8998bf053 *gd1979-09-01s2t03.flac
03f89461b8f7fbdd5d50c4e9f966a8c6 *gd1979-09-01s2t04.flac
03dfe71a09a017bcf7162038cd2aef23 *gd1979-09-01s2t05.flac
324038988c103177e404c203ef22d5da *gd1979-09-01s2t06.flac
5f4c7596af0dc9346fe5e20a040cece4 *gd1979-09-01s2t07.flac
3ab519b7ae275fbd091e6a7afac168bc *gd1979-09-01s2t08.flac
b12c5a9439a13483e663b89a93269d21 *gd1979-09-01s2t09.flac
d9c44ddb8937053655f7d7ab36c296b4 *gd1979-09-01s2t10.flac
442220d1d415633cb517a290cdbf5bcf *gd1979-09-01s2t11.flac

Comments
Add Comment
Other Sources (comments)
AUD>MC>DAT>CDR; via Paul B;... (1) master SBD cassette (Dolby... (0) flac24; Recording... (0) flac16; Recording... (0) flac16; Recording... (0) flac24; AUD: 2x AKG... (0) flac16; AUD: 2x AKG... (0)
Date User Comment