Browse Collections Artists Sources   Search Dates

Add Show    List Management    Help


Grateful Dead 03/05/81
Stanley Theater, Pittsburgh, PA
Comments Add Comment    Source Collectors    Add to Collection    Add to Want List    History
Source # 139506 Other Sources
Entered by Matt Vernon
Checksums ffp , flac-md5
Disc Counts 0 / 0
Media Size Compressed: 1.07 GB (1150832640 bytes)
Uncompressed: 1.79 GB (1917969988 bytes)
Date Circulated
Date Added
10/01/2017
10/01/2017
Source Summary flac16; AUD: Unknown taper & gear > Low-gen tapes, kindly provided from the collection of Craig L. Transfer: Maxell XLII > Nakamichi CR-5A > Edirol FA-66 > Wavelab 2448 > R8Brain SRC > Wavelab (adding 16-bit patches) > CD-Wave > TLH > FLAC 1644 tagged. Transferred by Andrew F. 10/2017 
  Archive
Source Information - Download Text | Download Zip
GRATEFUL DEAD
Stanley Theater
Pittsburgh PA
03-05-1981

s1t01 Alabama Getaway >
s1t02 Greatest Story Ever Told
s1t03 Friend of the Devil >
s1t04 C.C. Rider
s1t05 Althea
s1t06 Mama Tried >
s1t07 Mexicali Blues
s1t08 To Lay Me Down >
s1t09 Minglewood Blues
s1t10 Tennessee Jed >
s1t11 The Music Never Stopped

s2t01 Jam (without Jerry) >
s2t02 Passenger
s2t03 Scarlet Begonias >
s2t04 Fire on the Mountain
s2t05 Playin' in the Band >
s2t06 Drums >
s2t07 Space >
s2t08 Not Fade Away >
s2t09 Wharf Rat >
s2t10 Around & Around >
s2t11 Johnny B. Goode
s2t12 Encore: U.S. Blues

AUD: Unknown taper & gear > Low-gen tapes, kindly provided from
the collection of Craig L.

Transfer: Maxell XLII > Nakamichi CR-5A > Edirol FA-66 > Wavelab
2448 > R8Brain SRC > Wavelab (adding 16-bit patches) > CD-Wave >
TLH > FLAC 1644 tagged. Transferred by Andrew F. 10/2017

Note: Despite lack of lineage, this is a wonderful recording mix,
and does not match any of the current sources. ID-129756 patches
for Jam 0:00 > 3:28, Jam 4:05 > 4:15, and Drums 0:20 > 8:03.

    length     expanded size    cdr  WAVE problems  fmt   ratio  filename
     5:33.27       58804748 B   ---   --   ---xx   flac  0.5994  gd1981-03-05s1t01.flac
     4:04.48       43154540 B   ---   --   ---xx   flac  0.5868  gd1981-03-05s1t02.flac
     9:48.69      103885532 B   ---   --   ---xx   flac  0.5812  gd1981-03-05s1t03.flac
     7:47.07       82395308 B   ---   --   ---xx   flac  0.5872  gd1981-03-05s1t04.flac
     8:07.06       85920956 B   ---   --   ---xx   flac  0.5893  gd1981-03-05s1t05.flac
     2:47.30       29529404 B   ---   --   ---xx   flac  0.6019  gd1981-03-05s1t06.flac
     4:37.36       48947516 B   ---   --   ---xx   flac  0.6096  gd1981-03-05s1t07.flac
    10:10.61      107747516 B   ---   --   ---xx   flac  0.5672  gd1981-03-05s1t08.flac
     7:16.47       77020988 B   ---   --   ---xx   flac  0.6011  gd1981-03-05s1t09.flac
     9:08.09       96688412 B   ---   --   ---xx   flac  0.5898  gd1981-03-05s1t10.flac
     8:08.24       86139692 B   ---   --   ---xx   flac  0.5992  gd1981-03-05s1t11.flac
    11:37.47      123061388 B   ---   --   ---xx   flac  0.5938  gd1981-03-05s2t01.flac
     5:06.08       53997260 B   ---   --   ---xx   flac  0.6227  gd1981-03-05s2t02.flac
    12:00.10      127031564 B   ---   --   ---xx   flac  0.6206  gd1981-03-05s2t03.flac
    11:07.70      117823484 B   ---   --   ---xx   flac  0.6151  gd1981-03-05s2t04.flac
    14:26.45      152868284 B   ---   --   ---xx   flac  0.6093  gd1981-03-05s2t05.flac
     9:00.18       95298380 B   ---   --   ---xx   flac  0.5562  gd1981-03-05s2t06.flac
     4:51.21       51381836 B   ---   --   ---xx   flac  0.5821  gd1981-03-05s2t07.flac
    10:23.62      110043068 B   ---   --   ---xx   flac  0.6201  gd1981-03-05s2t08.flac
    10:50.70      114824684 B   ---   --   ---xx   flac  0.6163  gd1981-03-05s2t09.flac
     4:14.02       44810348 B   ---   --   ---xx   flac  0.6257  gd1981-03-05s2t10.flac
     4:25.45       46851884 B   ---   --   ---xx   flac  0.6395  gd1981-03-05s2t11.flac
     5:38.51       59743196 B   ---   --   ---xx   flac  0.6009  gd1981-03-05s2t12.flac
   181:12.63     1917969988 B                            0.5999  (23 files)

No errors occured.



Show Checksums
ffp
gd1981-03-05s1t01.flac:77f704194d0aa74e9bf2516772166821
gd1981-03-05s1t02.flac:d255c1d6df8b1c97de0150560b3b1e3d
gd1981-03-05s1t03.flac:eff4474161b9774b3e614b5b01c22348
gd1981-03-05s1t04.flac:c81f33cb79d5686945e5157c8b064335
gd1981-03-05s1t05.flac:fe38cf5948cfa8736769f6377259fe7f
gd1981-03-05s1t06.flac:0a1fd9cb95f796d32b90d7a9fd6115b1
gd1981-03-05s1t07.flac:c82fc83ad6ee87844d760d413d47fb17
gd1981-03-05s1t08.flac:aa1b4b64e7a05eca4e3f4d557777aaec
gd1981-03-05s1t09.flac:97d6b926fd65c66e73f74aae5cc1b424
gd1981-03-05s1t10.flac:d9a9d4efe8cf74a96f0e61ec118eedb6
gd1981-03-05s1t11.flac:46ed8df2d45870cc217ded6adebf6397
gd1981-03-05s2t01.flac:3ee62c0cf3ba53c246a1c193c2f4759f
gd1981-03-05s2t02.flac:82db60e353cec61ac7814f55d1c0e441
gd1981-03-05s2t03.flac:192ef8c6134970afddffca77f482fb4e
gd1981-03-05s2t04.flac:e492178d859541e62a6b2904bc033cb9
gd1981-03-05s2t05.flac:8931468f70d29470b54bedb88a4baf5d
gd1981-03-05s2t06.flac:4d403f1ea5d98cd6292af7ed2f68bf63
gd1981-03-05s2t07.flac:af548da0f3087ee743a0311d663f2f6a
gd1981-03-05s2t08.flac:7e383bd86708eb0847bed261d64264b6
gd1981-03-05s2t09.flac:5032c79f417b220e330e37d63219d3db
gd1981-03-05s2t10.flac:320a31b95c88c9a0bf8ff9c3b393c8ba
gd1981-03-05s2t11.flac:beb2b7240b13b5852ed68f11fb85117a
gd1981-03-05s2t12.flac:d286d9e60932d1b69045aab9236f04ef
flac-md5
5d48cb0f0d3aeb29bae31b2df8c05971 *gd1981-03-05s1t01.flac
dad7192cbf11affe3ff640e21543b6d8 *gd1981-03-05s1t02.flac
2402739309e6844ec398d24c6dab0350 *gd1981-03-05s1t03.flac
77992069b74f7250eaaccf7647be97f4 *gd1981-03-05s1t04.flac
6cedf5fe96a64f5512f985403d0d0774 *gd1981-03-05s1t05.flac
143fcfaf765b9cef9b548689ace53191 *gd1981-03-05s1t06.flac
544d8c381c92e756ac66fcb2024f4356 *gd1981-03-05s1t07.flac
d81b9de2834d2f84cc3bb23124343a33 *gd1981-03-05s1t08.flac
45eb0c4454a21da798d28d9cc5db0d0d *gd1981-03-05s1t09.flac
7289798357fbe28751f699b0623750d2 *gd1981-03-05s1t10.flac
2b5611c7111a7f1974424a7ea88c4dec *gd1981-03-05s1t11.flac
611933fc1ee9f6f2e3bff87f96e6edd8 *gd1981-03-05s2t01.flac
a4abf4ad1237938549b59a2b36246916 *gd1981-03-05s2t02.flac
4e5ad28f773090f696bf2db098e98643 *gd1981-03-05s2t03.flac
3f5332324a0163db09dc99e8c7b85235 *gd1981-03-05s2t04.flac
1862dfc5f232b637b4939ff3737aab7e *gd1981-03-05s2t05.flac
34d4f68818aeb1833733408737980185 *gd1981-03-05s2t06.flac
141417afb61e0f76c48462627c4a9e77 *gd1981-03-05s2t07.flac
2ecfb494d8809661c94acefefa5067c3 *gd1981-03-05s2t08.flac
2102e7a2519c7a283bbc2852e77a6b7f *gd1981-03-05s2t09.flac
8174f1ce33b2391e392ea11b72d2f5a2 *gd1981-03-05s2t10.flac
25ccab58409eb101f65c6a6322e2fdc1 *gd1981-03-05s2t11.flac
482f70bcbb9ad53a8baed3c7988e3e9f *gd1981-03-05s2t12.flac

Comments
Add Comment
Other Sources (comments)
Audience recording by Jim... (0) Set 2 soundboard, minus... (1) flac16; Recording by... (1) flac24; Recording by... (0) flac16; Recording by... (0) flac16; Recorded By... (0) flac16; Source Info:... (0) flac24; Source Info:... (0)
Date User Comment